Teen Tits Tube, Young Girls Porn Videos 6209

Veiki & Liona – Two Is Better Then OneTaissia – Take it slow

Posted in HD Porn, Pornstar, Sex Movies, Teen | 8054 Views |


Rate this girl !!!




cover\r\n\r\n \r\n

[Sex-Art.com] Dominica Phoenix & Lutro – Weekend – Welcome

\r\n 



DOWNLOAD

Keep2share.cc - Uploaded.net - Openload.co - Rapidu.net


http://ryushare.com/jgxa6jfnl5pp/s4.14.09.28.dom1n1c4.pho3n1x.w33k3nd.mp4
http://k2s.cc/file/e8bf93b0f57fa/s4.14.09.28.dom1n1c4.pho3n1x.w33k3nd.mp4
http://ul.to/02ymqeik/s4.14.09.28.dom1n1c4.pho3n1x.w33k3nd.mp4




Premium here:
uploaded.net
keep2share.cc
rapidu.net.cc


Teens related to Teen Tits Tube, Young Girls Porn Videos 6209


18YearsOld.com Megan Rain – Playing Hooky ryushare uploaded keep2share

18YearsOld.com Megan Rain – Playing Hooky

Teen Sex Movies 1891 ryushare uploaded keep2share

Teen Sex Movies 1891

hd 1080p xxx video pornstar 226170 ryushare uploaded keep2share

hd 1080p xxx video pornstar 226170

Wow porn hd downloads 225831 ryushare uploaded keep2share

Wow porn hd downloads 225831

HD Sex World Videos High Definition Free Porn 225387 ryushare uploaded keep2share

HD Sex World Videos High Definition Free Porn 225387

Rocco Siffred – Kiara Lord – POV ryushare uploaded keep2share

Rocco Siffred – Kiara Lord – POV

www sex com video high quality free downloading 226323 ryushare uploaded keep2share

www sex com video high quality free downloading 226323

Hardcore Sex Hub 224214 ryushare uploaded keep2share

Hardcore Sex Hub 224214

Uliya – Special surprise for a sex date ryushare uploaded keep2share

Uliya – Special surprise for a sex date

Teen porn movies 224211 ryushare uploaded keep2share

Teen porn movies 224211

Www xxx 99net com 226260 ryushare uploaded keep2share

Www xxx 99net com 226260

Movies Young legal porn 5205 ryushare uploaded keep2share

Movies Young legal porn 5205

hd com 18 year sex mobi 226401 ryushare uploaded keep2share

hd com 18 year sex mobi 226401

16yers hd xxx com 226434 ryushare uploaded keep2share

16yers hd xxx com 226434

X-Angels Licie ryushare uploaded keep2share

X-Angels Licie

18 years girl xxx sex videos) 2819 ryushare uploaded keep2share

18 years girl xxx sex videos) 2819

download video bf sex full hd hq ryushare uploaded keep2share

download video bf sex full hd hq

fucking pix hd download ryushare uploaded keep2share

fucking pix hd download

www HD SCORE PLAY VERONIKA PORN FULL VIDEOS FREE DOWUNLOD COM ryushare uploaded keep2share

www HD SCORE PLAY VERONIKA PORN FULL VIDEOS FREE DOWUNLOD COM

free heigh definition porn movies download 226263 ryushare uploaded keep2share

free heigh definition porn movies download 226263

HD porn teen downloads 2511 ryushare uploaded keep2share

HD porn teen downloads 2511

Hd quality – Teen sex video 225399 ryushare uploaded keep2share

Hd quality – Teen sex video 225399

new pussy xxx 226162 ryushare uploaded keep2share

new pussy xxx 226162

Mindy – As We Lay ryushare uploaded keep2share

Mindy – As We Lay

Teenies Videos – Teen Porn, Teen Sex, XXX Free Videos 2408 ryushare uploaded keep2share

Teenies Videos – Teen Porn, Teen Sex, XXX Free Videos 2408

8 Teen XXX – Teen Sex 4220 ryushare uploaded keep2share

8 Teen XXX – Teen Sex 4220

Teen Sex Movies Young Porn Tube Vids 224457 ryushare uploaded keep2share

Teen Sex Movies Young Porn Tube Vids 224457

sex xxx hd new 98 226668 ryushare uploaded keep2share

sex xxx hd new 98 226668

High Definition Movies on HD Teen Porn XXX Tube 2367 ryushare uploaded keep2share

High Definition Movies on HD Teen Porn XXX Tube 2367

Sweet Teen Porn – Young Porn Videos 1653 ryushare uploaded keep2share

Sweet Teen Porn – Young Porn Videos 1653

Young XXX Tube Videos 3662 ryushare uploaded keep2share

Young XXX Tube Videos 3662

Hd quality – Teen sex video 2401 ryushare uploaded keep2share

Hd quality – Teen sex video 2401

HD Porn Videos 5360 ryushare uploaded keep2share

HD Porn Videos 5360

High Definition Movies on HD Teen Porn XXX Tube 1687 ryushare uploaded keep2share

High Definition Movies on HD Teen Porn XXX Tube 1687

[18OnlyGirls.com] Ada – Asian Teen Intense Anal Sex ryushare uploaded keep2share

[18OnlyGirls.com] Ada – Asian Teen Intense Anal Sex

Report broken links / Post a comment

You must be logged in to post a comment.



General\r\nComplete name : D:hd teens porn download free online[Sex-Art.com] Dominica Phoenix & Lutro – Weekend – Welcome.mp4\r\nFormat : MPEG-4\r\nFormat profile : Base Media\r\nCodec ID : isom\r\nFile size : 1.70 GiB\r\nDuration : 29mn 53s\r\nOverall bit rate : 8 123 Kbps\r\nEncoded date : UTC 2014-09-07 22:13:38\r\nTagged date : UTC 2014-09-28 07:08:27\r\nWriting application : Lavf53.32.100\r\n\r\nVideo\r\nID : 1\r\nFormat : AVC\r\nFormat/Info : Advanced Video Codec\r\nFormat profile : [email protected]\r\nFormat settings, CABAC : Yes\r\nFormat settings, ReFrames : 5 frames\r\nCodec ID : avc1\r\nCodec ID/Info : Advanced Video Coding\r\nDuration : 29mn 53s\r\nBit rate : 8 000 Kbps\r\nWidth : 1 920 pixels\r\nHeight : 1 080 pixels\r\nDisplay aspect ratio : 16:9\r\nFrame rate mode : Constant\r\nFrame rate : 25.000 fps\r\nColor space : YUV\r\nChroma subsampling : 4:2:0\r\nBit depth : 8 bits\r\nScan type : Progressive\r\nBits/(Pixel*Frame) : 0.154\r\nStream size : 1.67 GiB (98%)\r\nWriting library : x264 core 129 r2245 bc13772\r\nEncoding settings : cabac=1 / ref=5 / deblock=1:0:0 / analyse=0x3:0x113 / me=umh / subme=8 / psy=0 / mixed_ref=1 / me_range=16 / chroma_me=1 / trellis=1 / 8x8dct=1 / cqm=0 / deadzone=21,11 / fast_pskip=1 / chroma_qp_offset=0 / threads=36 / lookahead_threads=6 / sliced_threads=0 / nr=0 / decimate=1 / interlaced=0 / bluray_compat=0 / constrained_intra=0 / bframes=3 / b_pyramid=2 / b_adapt=2 / b_bias=0 / direct=3 / weightb=1 / open_gop=0 / weightp=2 / keyint=250 / keyint_min=25 / scenecut=40 / intra_refresh=0 / rc=2pass / mbtree=0 / bitrate=8000 / ratetol=1.0 / qcomp=0.60 / qpmin=10 / qpmax=51 / qpstep=4 / cplxblur=20.0 / qblur=0.5 / ip_ratio=1.40 / pb_ratio=1.30 / aq=1:1.00\r\nLanguage : English\r\nEncoded date : UTC 2014-09-07 22:13:38\r\nTagged date : UTC 2014-09-07 22:13:38\r\n\r\nAudio\r\nID : 2\r\nFormat : AAC\r\nFormat/Info : Advanced Audio Codec\r\nFormat profile : LC\r\nCodec ID : 40\r\nDuration : 29mn 53s\r\nBit rate mode : Constant\r\nBit rate : 128 Kbps\r\nChannel(s) : 2 channels\r\nChannel positions : Front: L R\r\nSampling rate : 44.1 KHz\r\nCompression mode : Lossy\r\nStream size : 27.4 MiB (2%)\r\nLanguage : English\r\nEncoded date : UTC 2014-09-07 22:13:38\r\nTagged date : UTC 2014-09-07 22:13:38\r\n\r\n