TeenBFF.com Maci Winslett & Alex Tanner – Posing for Cum

Defloration.com Erika Kleptovich – Losing of Virginity18YearsOld.com Megan Rain – Playing Hooky

Posted in Amateur, HD Porn, Sex Movies, Teen, Threesome | 8274 Views |


Rate this girl !!!




cover\r\n\r\n1920x1080p / MP4 / 1.18 GB\r\n

[TeenBFF.com] Maci Winslett & Alex Tanner – Posing for Cum

\r\nSCREENSHOTS:\r\n\r\nscreens



DOWNLOAD

Keep2share.cc - Uploaded.net - Openload.co - Rapidu.net



http://ul.to/6w4ftyej/tbff.m4c1.4l3x.p0s1ng.f0r.cvm.09.10.14_1080.mp4
http://played.to/62bo5nmgwwz6


Premium here:
uploaded.net
keep2share.cc
rapidu.net.cc


Teens related to TeenBFF.com Maci Winslett & Alex Tanner – Posing for Cum


Beautifull 18 years girl amateur 4791 ryushare uploaded keep2share

Beautifull 18 years girl amateur 4791

HD Porn Teen Sex Videos 225926 ryushare uploaded keep2share

HD Porn Teen Sex Videos 225926

18 year girl xxxx downlode ryushare uploaded keep2share

18 year girl xxxx downlode

Hd young videos 225308 ryushare uploaded keep2share

Hd young videos 225308

Sweet Teen Porn – sex in the kitchen ryushare uploaded keep2share

Sweet Teen Porn – sex in the kitchen

Wow girls porn teens 3033 ryushare uploaded keep2share

Wow girls porn teens 3033

xxx hd move Hq 226564 ryushare uploaded keep2share

xxx hd move Hq 226564

Young teens tube hot girls free porn video 224027 ryushare uploaded keep2share

Young teens tube hot girls free porn video 224027

Sex with my blonde ex girlfriend ryushare uploaded keep2share

Sex with my blonde ex girlfriend

Download young porn sex 223839 ryushare uploaded keep2share

Download young porn sex 223839

Free Teen Porn Videos at Teen Sex Tube XXX 5283 ryushare uploaded keep2share

Free Teen Porn Videos at Teen Sex Tube XXX 5283

wwwxxxsexvedios 226609 ryushare uploaded keep2share

wwwxxxsexvedios 226609

Young xxx 225438 ryushare uploaded keep2share

Young xxx 225438

ww poran xxx hd com 226538 ryushare uploaded keep2share

ww poran xxx hd com 226538

HD Porn Videos 225943 ryushare uploaded keep2share

HD Porn Videos 225943

College Teen Sex 2160 ryushare uploaded keep2share

College Teen Sex 2160

Porn massage young brunette ryushare uploaded keep2share

Porn massage young brunette

Download young porn sex 224839 ryushare uploaded keep2share

Download young porn sex 224839

Teen Sex Porn Videos Free Nude Teens 5135 ryushare uploaded keep2share

Teen Sex Porn Videos Free Nude Teens 5135

www pinkwordcom 226327 ryushare uploaded keep2share

www pinkwordcom 226327

Teen xxx sex hd 225384 ryushare uploaded keep2share

Teen xxx sex hd 225384

Young Sex Movies 225730 ryushare uploaded keep2share

Young Sex Movies 225730

xxx hd first time sex pic ryushare uploaded keep2share

xxx hd first time sex pic

Wow Porn Movies download) 5153 ryushare uploaded keep2share

Wow Porn Movies download) 5153

pc hd fucking clip 226607 ryushare uploaded keep2share

pc hd fucking clip 226607

Hot Teen Sex HD videos 223993 ryushare uploaded keep2share

Hot Teen Sex HD videos 223993

Amateur Teen Sex 223903 ryushare uploaded keep2share

Amateur Teen Sex 223903

21Naturals.com Michelle Moore – Blindfolded ryushare uploaded keep2share

21Naturals.com Michelle Moore – Blindfolded

Teen porn xxx 5290 ryushare uploaded keep2share

Teen porn xxx 5290

Gianna – Real Blonde Love Doll Screws Her BF ryushare uploaded keep2share

Gianna – Real Blonde Love Doll Screws Her BF

blowjob craving lips 226579 ryushare uploaded keep2share

blowjob craving lips 226579

Www xxx18yaer hd vido com 226552 ryushare uploaded keep2share

Www xxx18yaer hd vido com 226552

Teenage Fuck Clips 2933 ryushare uploaded keep2share

Teenage Fuck Clips 2933

www hd 18years sex videos free downlode net 226256 ryushare uploaded keep2share

www hd 18years sex videos free downlode net 226256

Chelsy Sun & Thomas Lee – Play With Me ryushare uploaded keep2share

Chelsy Sun & Thomas Lee – Play With Me

Report broken links / Post a comment

You must be logged in to post a comment.



General\r\nComplete name : J:HD Teens Movies Young Downloads Online Clips ScenesTeenBFF.com Maci Winslett & Alex Tanner – Posing for Cum _1080.mp4\r\nFormat : MPEG-4\r\nFormat profile : Base Media\r\nCodec ID : isom\r\nFile size : 1.18 GiB\r\nDuration : 18mn 15s\r\nOverall bit rate : 9 261 Kbps\r\nWriting application : Lavf55.44.100\r\n\r\nVideo\r\nID : 1\r\nFormat : AVC\r\nFormat/Info : Advanced Video Codec\r\nFormat profile : [email protected]\r\nFormat settings, CABAC : No\r\nFormat settings, ReFrames : 2 frames\r\nCodec ID : avc1\r\nCodec ID/Info : Advanced Video Coding\r\nDuration : 18mn 15s\r\nBit rate : 9 128 Kbps\r\nWidth : 1 920 pixels\r\nHeight : 1 080 pixels\r\nDisplay aspect ratio : 16:9\r\nFrame rate mode : Constant\r\nFrame rate : 23.976 fps\r\nColor space : YUV\r\nChroma subsampling : 4:2:0\r\nBit depth : 8 bits\r\nScan type : Progressive\r\nBits/(Pixel*Frame) : 0.184\r\nStream size : 1.16 GiB (99%)\r\nWriting library : x264 core 142 r2431 a5831aa\r\nEncoding settings : cabac=0 / ref=2 / deblock=1:0:0 / analyse=0x1:0x111 / me=hex / subme=6 / psy=1 / psy_rd=1.00:0.00 / mixed_ref=1 / me_range=16 / chroma_me=1 / trellis=1 / 8x8dct=0 / cqm=0 / deadzone=21,11 / fast_pskip=1 / chroma_qp_offset=-2 / threads=2 / lookahead_threads=1 / sliced_threads=0 / nr=0 / decimate=1 / interlaced=0 / bluray_compat=0 / constrained_intra=0 / bframes=0 / weightp=0 / keyint=250 / keyint_min=23 / scenecut=40 / intra_refresh=0 / rc_lookahead=30 / rc=crf / mbtree=1 / crf=18.0 / qcomp=0.60 / qpmin=0 / qpmax=69 / qpstep=4 / ip_ratio=1.40 / aq=1:1.00\r\nLanguage : English\r\n\r\nAudio\r\nID : 2\r\nFormat : AAC\r\nFormat/Info : Advanced Audio Codec\r\nFormat profile : LC\r\nCodec ID : 40\r\nDuration : 18mn 15s\r\nBit rate mode : Constant\r\nBit rate : 128 Kbps\r\nChannel count : 2 channels\r\nChannel positions : Front: L R\r\nSampling rate : 48.0 KHz\r\nCompression mode : Lossy\r\nStream size : 16.7 MiB (1%)\r\nLanguage : English\r\n\r\n