Teenies Videos – Teen Porn, Teen Sex, XXX Free Videos 1306

8 Teen XXX - Teen Sex 1309Free Porn Videos Xxx Movies Pussy Porn 1302

Posted in Amateur, HD Porn, Sex Movies, Teen, Threesome | 10350 Views |


Rate this girl !!!




\r\n\r\n \r\n\r\n \r\n\r\nhttp://img101.imagetwist.com/i/05191/j6boldomii4p.jpg\r\n\r\n Link(707 Mb||32:53||720*576||WMV)



DOWNLOAD

Keep2share.cc - Uploaded.net - Openload.co - Rapidu.net


http://ul.to/ukrbi0tk
http://ryushare.com/sviuefduv2c8/TNSMJKls.rar
http://keep2share.cc/file/c22e3f9d75c35


Premium here:
uploaded.net
keep2share.cc
rapidu.net.cc

Teens related to Teenies Videos – Teen Porn, Teen Sex, XXX Free Videos 1306


8 Teen XXX – Teen Sex 4481 ryushare uploaded keep2share

8 Teen XXX – Teen Sex 4481

First time Sexual Films 18 sex xxx 5107 ryushare uploaded keep2share

First time Sexual Films 18 sex xxx 5107

Teenage Fuck Clips 3782 ryushare uploaded keep2share

Teenage Fuck Clips 3782

Two cocks for a teen ryushare uploaded keep2share

Two cocks for a teen

WowGirls.com Nomi – An Expert At Work ryushare uploaded keep2share

WowGirls.com Nomi – An Expert At Work

Model porno sex 4859 ryushare uploaded keep2share

Model porno sex 4859

Amazing Outdoors – Beautiful Brunette ryushare uploaded keep2share

Amazing Outdoors – Beautiful Brunette

Free High Quality Sex Movies 1788 ryushare uploaded keep2share

Free High Quality Sex Movies 1788

teenmania hd video download 226090 ryushare uploaded keep2share

teenmania hd video download 226090

Wow porn tube movies 224880 ryushare uploaded keep2share

Wow porn tube movies 224880

Girls do porn downloads 4056 ryushare uploaded keep2share

Girls do porn downloads 4056

HD porn uploaded 3712 ryushare uploaded keep2share

HD porn uploaded 3712

Hardcore sex videos in the high definition quality 5087 ryushare uploaded keep2share

Hardcore sex videos in the high definition quality 5087

Teen 18 Porn XXX Clips Naked 3465 ryushare uploaded keep2share

Teen 18 Porn XXX Clips Naked 3465

Sex Teens porn movies 3015 ryushare uploaded keep2share

Sex Teens porn movies 3015

Teen sex xxx hd 2916 ryushare uploaded keep2share

Teen sex xxx hd 2916

Watch Teen Sex Videos HD 4989 ryushare uploaded keep2share

Watch Teen Sex Videos HD 4989

8 Teen XXX – Teen Sex 224806 ryushare uploaded keep2share

8 Teen XXX – Teen Sex 224806

Teens in Porno young porn videos and free teen sex 5211 ryushare uploaded keep2share

Teens in Porno young porn videos and free teen sex 5211

Porn HD Sex HD Teen Sex 224857 ryushare uploaded keep2share

Porn HD Sex HD Teen Sex 224857

sexy full movies hd pron ryushare uploaded keep2share

sexy full movies hd pron

Jessie Volt, Sierra Nevadah – Blonde Seduction ryushare uploaded keep2share

Jessie Volt, Sierra Nevadah – Blonde Seduction

Shining Ass – Bianca AKA: Aline, Asya ryushare uploaded keep2share

Shining Ass – Bianca AKA: Aline, Asya

hard fuck hd image download 226631 ryushare uploaded keep2share

hard fuck hd image download 226631

HD porn teen downloads 2715 ryushare uploaded keep2share

HD porn teen downloads 2715

Free High Quality Sex Movies 225393 ryushare uploaded keep2share

Free High Quality Sex Movies 225393

8 Teen XXX – Teen Sex 224358 ryushare uploaded keep2share

8 Teen XXX – Teen Sex 224358

xxxxsexvideo 226647 ryushare uploaded keep2share

xxxxsexvideo 226647

Good Teen Tube Sexy Young Naked Girls Movies 223698 ryushare uploaded keep2share

Good Teen Tube Sexy Young Naked Girls Movies 223698

Teens 1080p hd porn 3561 ryushare uploaded keep2share

Teens 1080p hd porn 3561

antartika poeno sex 226048 ryushare uploaded keep2share

antartika poeno sex 226048

hd porn new breast 226190 ryushare uploaded keep2share

hd porn new breast 226190

HD Porn Teen Sex Videos 4207 ryushare uploaded keep2share

HD Porn Teen Sex Videos 4207

High Definition Movies on HD Teen Porn XXX Tube 1249 ryushare uploaded keep2share

High Definition Movies on HD Teen Porn XXX Tube 1249

Young teens tube hot girls free porn video 2142 ryushare uploaded keep2share

Young teens tube hot girls free porn video 2142

Report broken links / Post a comment

You must be logged in to post a comment.



General\r\nComplete name : D:HD Teens Tube Download Porn Sex clips movies.xxxTNSMJKlsTNSMJKls.wmv\r\nFormat : Windows Media\r\nFile size : 707 MiB\r\nDuration : 32mn 53s\r\nOverall bit rate mode : Constant\r\nOverall bit rate : 3 007 Kbps\r\nMaximum Overall bit rate : 3 163 Kbps\r\nPerformer : Royal-cash.com\r\nEncoded date : UTC 2008-06-24 09:31:47.603\r\nCopyright : Royal-cash.com\r\n\r\nVideo\r\nID : 2\r\nFormat : VC-1\r\nFormat profile : [email protected]\r\nCodec ID : WMV3\r\nCodec ID/Info : Windows Media Video 9\r\nCodec ID/Hint : WMV3\r\nDescription of the codec : Windows Media Video 9 - Professional\r\nDuration : 32mn 53s\r\nBit rate mode : Constant\r\nBit rate : 3 072 Kbps\r\nWidth : 720 pixels\r\nHeight : 576 pixels\r\nDisplay aspect ratio : 5:4\r\nFrame rate : 29.970 fps\r\nStandard : PAL\r\nColor space : YUV\r\nChroma subsampling : 4:2:0\r\nBit depth : 8 bits\r\nScan type : Progressive\r\nCompression mode : Lossy\r\nBits/(Pixel*Frame) : 0.247\r\nStream size : 723 MiB\r\nLanguage : English\r\n\r\nAudio\r\nID : 1\r\nFormat : WMA\r\nFormat version : Version 2\r\nCodec ID : 161\r\nCodec ID/Info : Windows Media Audio\r\nDescription of the codec : Windows Media Audio 9.1 - 64 kbps, 44 kHz, stereo 1-pass CBR\r\nDuration : 32mn 53s\r\nBit rate mode : Constant\r\nBit rate : 64.0 Kbps\r\nChannel(s) : 2 channels\r\nSampling rate : 44.1 KHz\r\nBit depth : 16 bits\r\nStream size : 15.1 MiB (2%)\r\nLanguage : English\r\n\r\n