Teenies Videos – Teen Porn, Teen Sex, XXX Free Videos 1601

HD Sex World Videos High Definition Free Porn 1604Watch Teen Sex Videos HD 1595

Posted in Amateur, HD Porn, Sex Movies, Teen | 17426 Views |


Rate this girl !!!




\r\n\r\nhttp://img102.imagetwist.com/i/05246/4wio573frmoz.jpeg\r\n\r\n Link(382 Mb||20:07||1280*720||WMV)



DOWNLOAD

Keep2share.cc - Uploaded.net - Openload.co - Rapidu.net


http://keep2share.cc/file/1ea393e15add8
http://ryushare.com/mvuuazrlvcuu/YRSDNTrs.rar
http://ul.to/q1m8rd62


Premium here:
uploaded.net
keep2share.cc
rapidu.net.cc

Teens related to Teenies Videos – Teen Porn, Teen Sex, XXX Free Videos 1601


white skin HD sex videos 226028 ryushare uploaded keep2share

white skin HD sex videos 226028

Teenage Fuck Clips 3405 ryushare uploaded keep2share

Teenage Fuck Clips 3405

Kail Takes on Two Horny Studs for some fun ryushare uploaded keep2share

Kail Takes on Two Horny Studs for some fun

Young Sex Movies 4496 ryushare uploaded keep2share

Young Sex Movies 4496

Kathia Nobili, Meg Magic – Low Self-Esteem ryushare uploaded keep2share

Kathia Nobili, Meg Magic – Low Self-Esteem

Young XXX Tube Videos 2398 ryushare uploaded keep2share

Young XXX Tube Videos 2398

Beautiful Teen Providing Ass Rimming To Her Boyfriend This Time ryushare uploaded keep2share

Beautiful Teen Providing Ass Rimming To Her Boyfriend This Time

Beautifull 18 years girl amateur 4791 ryushare uploaded keep2share

Beautifull 18 years girl amateur 4791

HD Teen Sex Tube 1330 ryushare uploaded keep2share

HD Teen Sex Tube 1330

Katerina Kay – No One Will See It Right? ryushare uploaded keep2share

Katerina Kay – No One Will See It Right?

Nubilefilms.com Elena Rae – Russian Beauty ryushare uploaded keep2share

Nubilefilms.com Elena Rae – Russian Beauty

21Naturals.com Ashley ryushare uploaded keep2share

21Naturals.com Ashley

K Daniela – The Hand-foot-clamp ryushare uploaded keep2share

K Daniela – The Hand-foot-clamp

Sweet Teen Porn – Young Porn Videos 225945 ryushare uploaded keep2share

Sweet Teen Porn – Young Porn Videos 225945

hd 720p porn vdo download ryushare uploaded keep2share

hd 720p porn vdo download

Kail (AKA: Kail, Kortny, Sandy) ryushare uploaded keep2share

Kail (AKA: Kail, Kortny, Sandy)

SONJA N – fuck my natural hairy pussy ryushare uploaded keep2share

SONJA N – fuck my natural hairy pussy

Hot sex girls movies download 4514 ryushare uploaded keep2share

Hot sex girls movies download 4514

real virgin Teent pussy image Hd com ryushare uploaded keep2share

real virgin Teent pussy image Hd com

porne vedio mkv formate 226102 ryushare uploaded keep2share

porne vedio mkv formate 226102

21Naturals.com Kiara Lord – Strings of passion ryushare uploaded keep2share

21Naturals.com Kiara Lord – Strings of passion

Stevie Shae – Fuck It Like You Own It ryushare uploaded keep2share

Stevie Shae – Fuck It Like You Own It

Amateur Teen Sex 224827 ryushare uploaded keep2share

Amateur Teen Sex 224827

Porn massage young brunette ryushare uploaded keep2share

Porn massage young brunette

Free Porn Videos Xxx Movies Pussy Porn 225269 ryushare uploaded keep2share

Free Porn Videos Xxx Movies Pussy Porn 225269

Daria – Clinic Sex ryushare uploaded keep2share

Daria – Clinic Sex

Teenage Fuck Clips 5122 ryushare uploaded keep2share

Teenage Fuck Clips 5122

teen sikişifilimi 226009 ryushare uploaded keep2share

teen sikişifilimi 226009

www fist timrs sex x videos com 226534 ryushare uploaded keep2share

www fist timrs sex x videos com 226534

free high resolution porn movies 226717 ryushare uploaded keep2share

free high resolution porn movies 226717

X-art Scarlet Jayden Blindfold me part2 ryushare uploaded keep2share

X-art Scarlet Jayden Blindfold me part2

Teen porn movies 224116 ryushare uploaded keep2share

Teen porn movies 224116

HD Porn Videos 1476 ryushare uploaded keep2share

HD Porn Videos 1476

Sara Luvv (Every Inch) ryushare uploaded keep2share

Sara Luvv (Every Inch)

Jane Classy & Alexis Crystal ryushare uploaded keep2share

Jane Classy & Alexis Crystal

Report broken links / Post a comment

You must be logged in to post a comment.



General\r\nComplete name : D:HD Teens Download Porn Sex clips movies Tube.xxxYRSDNTrsYRSDNTrs.wmv\r\nFormat : Windows Media\r\nFile size : 382 MiB\r\nDuration : 20mn 7s\r\nOverall bit rate mode : Constant\r\nOverall bit rate : 2 652 Kbps\r\nMaximum Overall bit rate : 2 651 Kbps\r\nEncoded date : UTC 2013-05-31 01:55:30.112\r\n\r\nVideo\r\nID : 2\r\nFormat : VC-1\r\nFormat profile : [email protected]\r\nCodec ID : WMV3\r\nCodec ID/Info : Windows Media Video 9\r\nCodec ID/Hint : WMV3\r\nDescription of the codec : Windows Media Video 9 - Professional\r\nDuration : 20mn 6s\r\nBit rate mode : Constant\r\nBit rate : 2 500 Kbps\r\nWidth : 1 280 pixels\r\nHeight : 720 pixels\r\nDisplay aspect ratio : 16:9\r\nFrame rate : 23.976 fps\r\nNominal frame rate : 29.970 fps\r\nColor space : YUV\r\nChroma subsampling : 4:2:0\r\nBit depth : 8 bits\r\nScan type : Progressive\r\nCompression mode : Lossy\r\nBits/(Pixel*Frame) : 0.113\r\nStream size : 360 MiB (94%)\r\n\r\nAudio\r\nID : 1\r\nFormat : WMA\r\nFormat version : Version 2\r\nCodec ID : 161\r\nCodec ID/Info : Windows Media Audio\r\nDescription of the codec : Windows Media Audio 9.2 - 128 kbps, 44 kHz, stereo 2-pass CBR\r\nDuration : 20mn 7s\r\nBit rate mode : Constant\r\nBit rate : 128 Kbps\r\nChannel(s) : 2 channels\r\nSampling rate : 44.1 KHz\r\nBit depth : 16 bits\r\nStream size : 18.4 MiB (5%)\r\n\r\n