Teenies Videos – Teen Porn, Teen Sex, XXX Free Videos 1642

High Definition Movies on HD 1647Teen Sex Movies 1635

Posted in Amateur, HD Porn, Sex Movies, Teen | 53634 Views |


Rate this girl !!!




\r\n\r\n\r\n\r\nhttp://img102.imagetwist.com/i/05252/qd8st1p0xhby.jpeg\r\n\r\n Link(496 Mb||45:40||960*540||MP4)



DOWNLOAD

Keep2share.cc - Uploaded.net - Openload.co - Rapidu.net


http://keep2share.cc/file/07bb48a8e9bdc
http://ryushare.com/t1trdedv0yqa/WDNCSnc.rar
http://ul.to/j9047mxz


Premium here:
uploaded.net
keep2share.cc
rapidu.net.cc

Teens related to Teenies Videos – Teen Porn, Teen Sex, XXX Free Videos 1642


Young XXX Tube Videos 3807 ryushare uploaded keep2share

Young XXX Tube Videos 3807

tube8hd video ryushare uploaded keep2share

tube8hd video

Watch Teen Sex Videos HD 225525 ryushare uploaded keep2share

Watch Teen Sex Videos HD 225525

NubileFilms.com Kacy Lane – Sexual Tension ryushare uploaded keep2share

NubileFilms.com Kacy Lane – Sexual Tension

Teen Sex Porn Videos Free Nude Teens 3857 ryushare uploaded keep2share

Teen Sex Porn Videos Free Nude Teens 3857

www hdbrazzers vedios download ryushare uploaded keep2share

www hdbrazzers vedios download

First time Sexual Films 18 sex xxx 2336 ryushare uploaded keep2share

First time Sexual Films 18 sex xxx 2336

Jasmine Caro – All day long ryushare uploaded keep2share

Jasmine Caro – All day long

pronster name sex video xxx ryushare uploaded keep2share

pronster name sex video xxx

Model porno sex 2822 ryushare uploaded keep2share

Model porno sex 2822

Teen porn xxx 5487 ryushare uploaded keep2share

Teen porn xxx 5487

www xxx utbe com ryushare uploaded keep2share

www xxx utbe com

Eva, Alberta, Niona, Nora – Sex party ryushare uploaded keep2share

Eva, Alberta, Niona, Nora – Sex party

Teen Sex Videos Tube Movies 224998 ryushare uploaded keep2share

Teen Sex Videos Tube Movies 224998

pron pictures fucked 226288 ryushare uploaded keep2share

pron pictures fucked 226288

Teen porn movies 225435 ryushare uploaded keep2share

Teen porn movies 225435

Wow porn hd downloads 224435 ryushare uploaded keep2share

Wow porn hd downloads 224435

HD Teen Sex Tube 2148 ryushare uploaded keep2share

HD Teen Sex Tube 2148

[FTVGirls.com] 2016-10-07 – Eva & Violet Starr – College Girls In Love [Lesbo, Toys, Fisting, 1080p] ryushare uploaded keep2share

[FTVGirls.com] 2016-10-07 – Eva & Violet Starr – College Girls In Love [Lesbo, Toys, Fisting, 1080p]

Tracy Smile – Soldier ryushare uploaded keep2share

Tracy Smile – Soldier

www xxx com vadio ryushare uploaded keep2share

www xxx com vadio

Small girls and boys porn 4304 ryushare uploaded keep2share

Small girls and boys porn 4304

sex xxx con 226363 ryushare uploaded keep2share

sex xxx con 226363

www 18porn com/hot hd video 226736 ryushare uploaded keep2share

www 18porn com/hot hd video 226736

www young sex perattes mp4 226746 ryushare uploaded keep2share

www young sex perattes mp4 226746

big boobs teen 226172 ryushare uploaded keep2share

big boobs teen 226172

Sweet Teen Porn – Young Porn Videos 4113 ryushare uploaded keep2share

Sweet Teen Porn – Young Porn Videos 4113

Young Virgin Pussy Teen Fuck Tube 2315 ryushare uploaded keep2share

Young Virgin Pussy Teen Fuck Tube 2315

HD Porn Video 5532 ryushare uploaded keep2share

HD Porn Video 5532

hd sexy porn star video ryushare uploaded keep2share

hd sexy porn star video

Teen Tits Tube, Young Girls Porn Videos 225601 ryushare uploaded keep2share

Teen Tits Tube, Young Girls Porn Videos 225601

Sex Teens porn movies 2846 ryushare uploaded keep2share

Sex Teens porn movies 2846

Tube Young Sex 3798 ryushare uploaded keep2share

Tube Young Sex 3798

Klixen – K Fantasies of a Piano Player ryushare uploaded keep2share

Klixen – K Fantasies of a Piano Player

Her Sweet Hand – Beatrice ryushare uploaded keep2share

Her Sweet Hand – Beatrice

Report broken links / Post a comment

You must be logged in to post a comment.



General\r\nComplete name : D:HD Teens Download Porn Sex clips movies Tube.xxxWDNCSncWDNCSnc.mp4\r\nFormat : MPEG-4\r\nFormat profile : Base Media\r\nCodec ID : isom\r\nFile size : 496 MiB\r\nDuration : 45mn 40s\r\nOverall bit rate mode : Variable\r\nOverall bit rate : 1 518 Kbps\r\nMovie name : INNOCENCIA - free girl november 2013\r\nAlbum/Performer : PIERRE WOODMAN\r\nDescription : Cette vidéo traite de INNOCENCIA - free girl november 2013\r\nWriting application : Lavf54.63.104\r\n\r\nVideo\r\nID : 1\r\nFormat : AVC\r\nFormat/Info : Advanced Video Codec\r\nFormat profile : [email protected]\r\nFormat settings, CABAC : Yes\r\nFormat settings, ReFrames : 4 frames\r\nCodec ID : avc1\r\nCodec ID/Info : Advanced Video Coding\r\nDuration : 45mn 40s\r\nBit rate mode : Variable\r\nBit rate : 1 400 Kbps\r\nMaximum bit rate : 2 000 Kbps\r\nWidth : 960 pixels\r\nHeight : 540 pixels\r\nDisplay aspect ratio : 16:9\r\nFrame rate mode : Constant\r\nFrame rate : 25.000 fps\r\nColor space : YUV\r\nChroma subsampling : 4:2:0\r\nBit depth : 8 bits\r\nScan type : Progressive\r\nBits/(Pixel*Frame) : 0.108\r\nStream size : 457 MiB (92%)\r\nWriting library : x264 core 132\r\nEncoding settings : cabac=1 / ref=5 / deblock=1:0:0 / analyse=0x3:0x113 / me=umh / subme=8 / psy=1 / psy_rd=1.00:0.00 / mixed_ref=1 / me_range=16 / chroma_me=1 / trellis=1 / 8x8dct=1 / cqm=0 / deadzone=21,11 / fast_pskip=1 / chroma_qp_offset=0 / threads=8 / lookahead_threads=1 / sliced_threads=0 / nr=0 / decimate=1 / interlaced=0 / bluray_compat=1 / constrained_intra=0 / bframes=3 / b_pyramid=1 / b_adapt=2 / b_bias=0 / direct=3 / weightb=1 / open_gop=0 / weightp=1 / keyint=50 / keyint_min=1 / scenecut=40 / intra_refresh=0 / rc_lookahead=50 / rc=2pass / mbtree=1 / bitrate=1400 / ratetol=1.0 / qcomp=0.60 / qpmin=0 / qpmax=69 / qpstep=4 / cplxblur=20.0 / qblur=0.5 / vbv_maxrate=2000 / vbv_bufsize=4000 / nal_hrd=vbr / ip_ratio=1.40 / aq=1:1.00\r\nLanguage : English\r\n\r\nAudio\r\nID : 2\r\nFormat : AAC\r\nFormat/Info : Advanced Audio Codec\r\nFormat profile : LC\r\nCodec ID : 40\r\nDuration : 45mn 40s\r\nBit rate mode : Constant\r\nBit rate : 112 Kbps\r\nChannel(s) : 2 channels\r\nChannel positions : Front: L R\r\nSampling rate : 48.0 KHz\r\nCompression mode : Lossy\r\nStream size : 36.6 MiB (7%)\r\nLanguage : English\r\n\r\n