Viktoria Diamond – Sinful Scarlet Mood

Bella Baby - Opposites AttractLucy Li - 18OnlyGirls

Posted in HD Porn, Pornstar, Sex Movies, Teen | 13712 Views |


Rate this girl !!!




[OnlyBlowJob.com / DDFNetwork.com] Viktoria Diamond (Sinful Scarlet Mood / 29.07.13 / 13890) [2013, BlowJob, 1080p]\r\npic\r\nName of the actress: Viktoria Diamond\r\nName movie: Sinful Scarlet Mood\r\nNumber on the website: 13890\r\nSubsite and site: OnlyBlowJob.com / DDFNetwork.com\r\nProduction year: 2013\r\nGenre: BlowJob\r\nTime: 00:16:13\r\nType HD video: 1080p\r\nVideo Format: MP4\r\nVideo codec: H.264/AVC\r\nAudio codec: AAC\r\nVideo: MPEG4 Video (H264) 1920×1080 29.97fps 12047kbps\r\nAudio: AAC 44100Hz stereo 99kbps \r\n\r\nhttp://i46.fastpic.ru/big/2013/0729/65/f86931f33469615845fff1993e7e9f65.jpg



DOWNLOAD

Keep2share.cc - Uploaded.net - Openload.co - Rapidu.net


http://keep2share.cc/file/52e88b1d76b8e
http://ryushare.com/g7vkwukkil20/V1ct0r14.D14m.rar
http://ul.to/nixmlaku


Premium here:
uploaded.net
keep2share.cc
rapidu.net.cc

Teens related to Viktoria Diamond – Sinful Scarlet Mood


HD Porn Teen Sex Videos 4207 ryushare uploaded keep2share

HD Porn Teen Sex Videos 4207

[WowPorn.com] Daphne & Ria Sun (Thorough Fingers / ryushare uploaded keep2share

[WowPorn.com] Daphne & Ria Sun (Thorough Fingers /

HD Porn Video 1552 ryushare uploaded keep2share

HD Porn Video 1552

www xxx hot 18 hd videos com ryushare uploaded keep2share

www xxx hot 18 hd videos com

Teen porn movies 3457 ryushare uploaded keep2share

Teen porn movies 3457

Teen 18 Porn XXX Clips Naked 3853 ryushare uploaded keep2share

Teen 18 Porn XXX Clips Naked 3853

Argentina and Anfisa ryushare uploaded keep2share

Argentina and Anfisa

Young Virgin Pussy Teen Fuck Tube 225554 ryushare uploaded keep2share

Young Virgin Pussy Teen Fuck Tube 225554

Dreams-HD.com Nikka ryushare uploaded keep2share

Dreams-HD.com Nikka

free download hd romance porn movie 226678 ryushare uploaded keep2share

free download hd romance porn movie 226678

College Teen Sex 224613 ryushare uploaded keep2share

College Teen Sex 224613

Sweet Teen Porn – Young Porn Videos 223999 ryushare uploaded keep2share

Sweet Teen Porn – Young Porn Videos 223999

Watch Teen Sex Videos HD 225475 ryushare uploaded keep2share

Watch Teen Sex Videos HD 225475

Young XXX Tube Videos 3884 ryushare uploaded keep2share

Young XXX Tube Videos 3884

download 1080p xxx porn video 226662 ryushare uploaded keep2share

download 1080p xxx porn video 226662

noveteens girls models clips 226158 ryushare uploaded keep2share

noveteens girls models clips 226158

Teens in Porno young porn videos and free teen sex 5211 ryushare uploaded keep2share

Teens in Porno young porn videos and free teen sex 5211

Amateur Teen Sex 225702 ryushare uploaded keep2share

Amateur Teen Sex 225702

Holly Michaels – Picture Perfect ryushare uploaded keep2share

Holly Michaels – Picture Perfect

Teen porn movies 3835 ryushare uploaded keep2share

Teen porn movies 3835

Teen Sex Movies 224712 ryushare uploaded keep2share

Teen Sex Movies 224712

hسكس ryushare uploaded keep2share

hسكس

The best Teen sex 225079 ryushare uploaded keep2share

The best Teen sex 225079

Linda S – Making Up For Lost Time ryushare uploaded keep2share

Linda S – Making Up For Lost Time

Teen Sex Videos Tube Movies 225137 ryushare uploaded keep2share

Teen Sex Videos Tube Movies 225137

Good Teen Tube Sexy Young Naked Girls Movies 225127 ryushare uploaded keep2share

Good Teen Tube Sexy Young Naked Girls Movies 225127

x art angelica susie heidi orgy 226351 ryushare uploaded keep2share

x art angelica susie heidi orgy 226351

porne vedio mkv formate 226102 ryushare uploaded keep2share

porne vedio mkv formate 226102

Hd young videos 3698 ryushare uploaded keep2share

Hd young videos 3698

Porn massage young brunette ryushare uploaded keep2share

Porn massage young brunette

www sex all world hd com 226654 ryushare uploaded keep2share

www sex all world hd com 226654

Young 720p hd porn 4917 ryushare uploaded keep2share

Young 720p hd porn 4917

HD Porn Teen Sex Videos 1122 ryushare uploaded keep2share

HD Porn Teen Sex Videos 1122

FirstAnalQuest Carmen Fox ryushare uploaded keep2share

FirstAnalQuest Carmen Fox

porn xxx sax move com ryushare uploaded keep2share

porn xxx sax move com

Report broken links / Post a comment

You must be logged in to post a comment.



General\r\nComplete name : D:OnlyBlowJob.com / DDFNetwork.com] Viktoria Diamond (Sinful Scarlet Mood / 29.07.13 / 13890) [2013, BlowJob, 1080pSinful Scarlet Mood.mp4\r\nFormat : MPEG-4\r\nFormat profile : Base Media / Version 2\r\nCodec ID : mp42\r\nFile size : 1.38 GiB\r\nDuration : 16mn 12s\r\nOverall bit rate : 12.2 Mbps\r\nMovie name : Download from HDteenmania.com\r\nEncoded date : UTC 2012-02-04 18:09:49\r\nTagged date : UTC 2012-02-04 18:34:36\r\nComment : Download from HDteenmania.com\r\n\r\nVideo\r\nID : 2\r\nFormat : AVC\r\nFormat/Info : Advanced Video Codec\r\nFormat profile : [email protected]\r\nFormat settings, CABAC : No\r\nFormat settings, ReFrames : 2 frames\r\nFormat settings, GOP : M=2, N=60\r\nCodec ID : avc1\r\nCodec ID/Info : Advanced Video Coding\r\nDuration : 16mn 12s\r\nBit rate : 12.0 Mbps\r\nWidth : 1 920 pixels\r\nHeight : 1 080 pixels\r\nDisplay aspect ratio : 16:9\r\nFrame rate mode : Constant\r\nFrame rate : 29.970 fps\r\nColor space : YUV\r\nChroma subsampling : 4:2:0\r\nBit depth : 8 bits\r\nScan type : Progressive\r\nBits/(Pixel*Frame) : 0.194\r\nStream size : 1.36 GiB (99%)\r\nLanguage : English\r\nEncoded date : UTC 2012-02-04 18:09:49\r\nTagged date : UTC 2012-02-04 18:34:36\r\nColor primaries : BT.709\r\nTransfer characteristics : BT.709\r\nMatrix coefficients : BT.709\r\n\r\nAudio\r\nID : 1\r\nFormat : AAC\r\nFormat/Info : Advanced Audio Codec\r\nFormat profile : LC\r\nCodec ID : 40\r\nDuration : 16mn 12s\r\nBit rate mode : Constant\r\nBit rate : 99.7 Kbps\r\nNominal bit rate : 128 Kbps\r\nChannel(s) : 2 channels\r\nChannel positions : Front: L R\r\nSampling rate : 44.1 KHz\r\nCompression mode : Lossy\r\nStream size : 11.6 MiB (1%)\r\nLanguage : English\r\nEncoded date : UTC 2012-02-04 18:09:49\r\nTagged date : UTC 2012-02-04 18:34:36\r\n\r\n