Watch Teen Sex Videos HD 1186

Hd quality - Teen sex video 1189Teen Porn XXX Tube 1179

Posted in HD Porn, Sex Movies, Teen | 12355 Views |


Rate this girl !!!




\r\n\r\nhttp://img56.imagetwist.com/i/05164/vc0gbaj8m6mn.jpeg\r\n\r\n Link(424 Mb||27:48||640*480||MP4)



DOWNLOAD

Keep2share.cc - Uploaded.net - Openload.co - Rapidu.net


http://ul.to/2i16c19t
http://ryushare.com/5g5pkn9pcdkf/NTMRCxs.rar
http://keep2share.cc/file/52ef9efdf40a0


Premium here:
uploaded.net
keep2share.cc
rapidu.net.cc


Teens related to Watch Teen Sex Videos HD 1186


Jasmine Caro – All day long ryushare uploaded keep2share

Jasmine Caro – All day long

sex full clarety videos 226664 ryushare uploaded keep2share

sex full clarety videos 226664

Young Sex Movies 224539 ryushare uploaded keep2share

Young Sex Movies 224539

Alice March – Smooth as Silk ryushare uploaded keep2share

Alice March – Smooth as Silk

Hot Teen Sex 224413 ryushare uploaded keep2share

Hot Teen Sex 224413

Www xxx 99net com 226260 ryushare uploaded keep2share

Www xxx 99net com 226260

x x x video mb4hd 226258 ryushare uploaded keep2share

x x x video mb4hd 226258

Wow Girls Porn Clips download 224524 ryushare uploaded keep2share

Wow Girls Porn Clips download 224524

teensex mp4 hd download 226542 ryushare uploaded keep2share

teensex mp4 hd download 226542

Hot sex girls movies download 2920 ryushare uploaded keep2share

Hot sex girls movies download 2920

High Definition Movies on HD 1766 ryushare uploaded keep2share

High Definition Movies on HD 1766

High Definition Movies on HD 224432 ryushare uploaded keep2share

High Definition Movies on HD 224432

boy xxx walpapr 226621 ryushare uploaded keep2share

boy xxx walpapr 226621

Teen Sex Videos Tube Movies 4833 ryushare uploaded keep2share

Teen Sex Videos Tube Movies 4833

High Definition Movies on HD 224782 ryushare uploaded keep2share

High Definition Movies on HD 224782

Adult Hardcore XXX Sex Videos 1446 ryushare uploaded keep2share

Adult Hardcore XXX Sex Videos 1446

Teenies Videos – Teen Porn, Teen Sex, XXX Free Videos 2648 ryushare uploaded keep2share

Teenies Videos – Teen Porn, Teen Sex, XXX Free Videos 2648

new porn video pc hd download ryushare uploaded keep2share

new porn video pc hd download

Adult Hardcore XXX Sex Videos 1343 ryushare uploaded keep2share

Adult Hardcore XXX Sex Videos 1343

HD Sex World Videos High Definition Free Porn 225327 ryushare uploaded keep2share

HD Sex World Videos High Definition Free Porn 225327

tits free ryushare uploaded keep2share

tits free

Free Teen Porn Videos at Teen Sex Tube XXX 225585 ryushare uploaded keep2share

Free Teen Porn Videos at Teen Sex Tube XXX 225585

Teen porn movies 2560 ryushare uploaded keep2share

Teen porn movies 2560

Kail (AKA: Kail, Kortny, Sandy) ryushare uploaded keep2share

Kail (AKA: Kail, Kortny, Sandy)

Free High Quality Sex Movies 225393 ryushare uploaded keep2share

Free High Quality Sex Movies 225393

Girls do porn downloads 3844 ryushare uploaded keep2share

Girls do porn downloads 3844

xxx 18porn sex ryushare uploaded keep2share

xxx 18porn sex

direct link hd porn 225998 ryushare uploaded keep2share

direct link hd porn 225998

CastingCouch X Jayden Full HD ryushare uploaded keep2share

CastingCouch X Jayden Full HD

[SellYourGF.com] Jade, Asa Belle – Fucked by the husband’s boss ryushare uploaded keep2share

[SellYourGF.com] Jade, Asa Belle – Fucked by the husband’s boss

High Definition Movies on HD 224755 ryushare uploaded keep2share

High Definition Movies on HD 224755

Hot Teen Sex HD videos 225940 ryushare uploaded keep2share

Hot Teen Sex HD videos 225940

sex hd teen xxxxx 18 226086 ryushare uploaded keep2share

sex hd teen xxxxx 18 226086

HD Porn Videos 224684 ryushare uploaded keep2share

HD Porn Videos 224684

www pinkwordcom 226327 ryushare uploaded keep2share

www pinkwordcom 226327

Report broken links / Post a comment

You must be logged in to post a comment.



General\r\nComplete name : D:HD TeenMania Porn Sex videosxxxNTMRCxsNTMRCxs.mp4\r\nFormat : MPEG-4\r\nFormat profile : Base Media\r\nCodec ID : isom\r\nFile size : 424 MiB\r\nDuration : 27mn 48s\r\nOverall bit rate mode : Variable\r\nOverall bit rate : 2 131 Kbps\r\nWriting application : Lavf54.29.104\r\n\r\nVideo\r\nID : 1\r\nFormat : AVC\r\nFormat/Info : Advanced Video Codec\r\nFormat profile : [email protected]\r\nFormat settings, CABAC : Yes\r\nFormat settings, ReFrames : 4 frames\r\nCodec ID : avc1\r\nCodec ID/Info : Advanced Video Coding\r\nDuration : 27mn 47s\r\nBit rate : 2 000 Kbps\r\nWidth : 640 pixels\r\nHeight : 480 pixels\r\nDisplay aspect ratio : 4:3\r\nFrame rate mode : Constant\r\nFrame rate : 24.000 fps\r\nColor space : YUV\r\nChroma subsampling : 4:2:0\r\nBit depth : 8 bits\r\nScan type : Progressive\r\nBits/(Pixel*Frame) : 0.271\r\nStream size : 398 MiB (94%)\r\nWriting library : x264 core 136\r\nEncoding settings : cabac=1 / ref=1 / deblock=1:0:0 / analyse=0x3:0x113 / me=hex / subme=2 / psy=1 / psy_rd=1.00:0.00 / mixed_ref=0 / me_range=16 / chroma_me=1 / trellis=0 / 8x8dct=1 / cqm=0 / deadzone=21,11 / fast_pskip=1 / chroma_qp_offset=0 / threads=48 / lookahead_threads=3 / sliced_threads=0 / nr=0 / decimate=1 / interlaced=0 / bluray_compat=0 / constrained_intra=0 / bframes=3 / b_pyramid=2 / b_adapt=1 / b_bias=0 / direct=1 / weightb=1 / open_gop=0 / weightp=1 / keyint=48 / keyint_min=4 / scenecut=40 / intra_refresh=0 / rc_lookahead=10 / rc=2pass / mbtree=1 / bitrate=2000 / ratetol=1.0 / qcomp=0.60 / qpmin=0 / qpmax=69 / qpstep=4 / cplxblur=20.0 / qblur=0.5 / ip_ratio=1.40 / aq=1:1.00\r\nLanguage : English\r\n\r\nAudio\r\nID : 2\r\nFormat : AAC\r\nFormat/Info : Advanced Audio Codec\r\nFormat profile : LC\r\nCodec ID : 40\r\nDuration : 27mn 48s\r\nBit rate mode : Variable\r\nBit rate : 126 Kbps\r\nMaximum bit rate : 131 Kbps\r\nChannel(s) : 2 channels\r\nChannel positions : Front: L R\r\nSampling rate : 44.1 KHz\r\nCompression mode : Lossy\r\nStream size : 25.0 MiB (6%)\r\n\r\n