Watch Teen Sex Videos HD 1207

Teen Sex Movies 1210Porn HD Sex HD Teen Sex 1200

Posted in HD Porn, Pornstar, Sex Movies, Teen | 11738 Views |


Rate this girl !!!




\r\n\r\nhttp://img54.imagetwist.com/i/04233/5cdq54jdp76m.jpeg\r\n\r\n Link(667 Mb||19:32||1280*720||MP4)



DOWNLOAD

Keep2share.cc - Uploaded.net - Openload.co - Rapidu.net


http://ul.to/pukvbp3t
http://ryushare.com/6wkxnrtrlepq/XRTDLNHRpr.rar
http://keep2share.cc/file/52efa5a7cc0ff


Premium here:
uploaded.net
keep2share.cc
rapidu.net.cc


Teens related to Watch Teen Sex Videos HD 1207


8 Teen XXX – Teen Sex 1309 ryushare uploaded keep2share

8 Teen XXX – Teen Sex 1309

www HD xxxvideos downlaod com ryushare uploaded keep2share

www HD xxxvideos downlaod com

HD sex movies downloads 3614 ryushare uploaded keep2share

HD sex movies downloads 3614

Young russian – Clubseventeen ryushare uploaded keep2share

Young russian – Clubseventeen

Stevie Shae – Fuck It Like You Own It ryushare uploaded keep2share

Stevie Shae – Fuck It Like You Own It

High Definition Movies on HD 4040 ryushare uploaded keep2share

High Definition Movies on HD 4040

8 Teen XXX – Teen Sex 4603 ryushare uploaded keep2share

8 Teen XXX – Teen Sex 4603

Young XXX Tube Videos 1801 ryushare uploaded keep2share

Young XXX Tube Videos 1801

HD Porn Video 5646 ryushare uploaded keep2share

HD Porn Video 5646

HD Porn Videos 225943 ryushare uploaded keep2share

HD Porn Videos 225943

Jungle Fever – Beata, Anjelica ryushare uploaded keep2share

Jungle Fever – Beata, Anjelica

telar with girls sexe video you tube 226766 ryushare uploaded keep2share

telar with girls sexe video you tube 226766

Edge play with Anabelle and Ashlynn ryushare uploaded keep2share

Edge play with Anabelle and Ashlynn

Hot download sex girls movies 225582 ryushare uploaded keep2share

Hot download sex girls movies 225582

www pussyHD picture ryushare uploaded keep2share

www pussyHD picture

Teen Sex Videos Tube Movies 225843 ryushare uploaded keep2share

Teen Sex Videos Tube Movies 225843

Sex videos hd for pc ryushare uploaded keep2share

Sex videos hd for pc

teen sex hd movi dsunloal 226601 ryushare uploaded keep2share

teen sex hd movi dsunloal 226601

Sandy Sweet – To Have And To Fuck ryushare uploaded keep2share

Sandy Sweet – To Have And To Fuck

Viktoria Diamond – Sinful Scarlet Mood ryushare uploaded keep2share

Viktoria Diamond – Sinful Scarlet Mood

Uploaded net porn XXX 224345 ryushare uploaded keep2share

Uploaded net porn XXX 224345

Kira Queen ryushare uploaded keep2share

Kira Queen

Wow girls porn teens 4254 ryushare uploaded keep2share

Wow girls porn teens 4254

Free Young Porn Videos XXX Teen Porn 5149 ryushare uploaded keep2share

Free Young Porn Videos XXX Teen Porn 5149

First time Sexual Films 18 sex xxx 3689 ryushare uploaded keep2share

First time Sexual Films 18 sex xxx 3689

Daria – Clinic Sex ryushare uploaded keep2share

Daria – Clinic Sex

xxxvsex hd fist time video ryushare uploaded keep2share

xxxvsex hd fist time video

hd18sex x videos com ryushare uploaded keep2share

hd18sex x videos com

Sex in bed with beautiful redhead ryushare uploaded keep2share

Sex in bed with beautiful redhead

Hot Teen Sex HD videos 4232 ryushare uploaded keep2share

Hot Teen Sex HD videos 4232

Ibiza Party – Teens Sex ryushare uploaded keep2share

Ibiza Party – Teens Sex

me bbxxxhd 226343 ryushare uploaded keep2share

me bbxxxhd 226343

KARLIE MONTANA’s Fetish Fantasies ryushare uploaded keep2share

KARLIE MONTANA’s Fetish Fantasies

Teen Sex Movies 2192 ryushare uploaded keep2share

Teen Sex Movies 2192

High Definition Movies on HD 5578 ryushare uploaded keep2share

High Definition Movies on HD 5578

Report broken links / Post a comment

You must be logged in to post a comment.



General\r\nComplete name : D:HD TeenMania Porn Sex videosxxxXRTDLNHRprXRTDLNHRpr.mp4\r\nFormat : MPEG-4\r\nFormat profile : Base Media\r\nCodec ID : isom\r\nFile size : 667 MiB\r\nDuration : 19mn 32s\r\nOverall bit rate mode : Variable\r\nOverall bit rate : 4 770 Kbps\r\nWriting application : Lavf54.22.100\r\n\r\nVideo\r\nID : 1\r\nFormat : MPEG-4 Visual\r\nFormat profile : [email protected]\r\nFormat settings, BVOP : No\r\nFormat settings, QPel : No\r\nFormat settings, GMC : No warppoints\r\nFormat settings, Matrix : Default (H.263)\r\nCodec ID : 20\r\nDuration : 19mn 32s\r\nBit rate mode : Variable\r\nBit rate : 4 647 Kbps\r\nMaximum bit rate : 5 000 Kbps\r\nWidth : 1 280 pixels\r\nHeight : 720 pixels\r\nDisplay aspect ratio : 16:9\r\nFrame rate mode : Constant\r\nFrame rate : 23.976 fps\r\nColor space : YUV\r\nChroma subsampling : 4:2:0\r\nBit depth : 8 bits\r\nScan type : Progressive\r\nCompression mode : Lossy\r\nBits/(Pixel*Frame) : 0.210\r\nStream size : 649 MiB (97%)\r\nWriting library : Lavc54.46.100\r\nLanguage : English\r\n\r\nAudio\r\nID : 2\r\nFormat : AAC\r\nFormat/Info : Advanced Audio Codec\r\nFormat profile : LC\r\nCodec ID : 40\r\nDuration : 19mn 32s\r\nDuration_LastFrame : -1ms\r\nBit rate mode : Variable\r\nBit rate : 119 Kbps\r\nMaximum bit rate : 128 Kbps\r\nChannel(s) : 2 channels\r\nChannel positions : Front: L R\r\nSampling rate : 48.0 KHz\r\nCompression mode : Lossy\r\nStream size : 16.7 MiB (2%)\r\nLanguage : English\r\n\r\n