Wild And Crazy Student Sex Party

Young Sex Movies 2030Fat Cock vs Horny Pussies

Posted in Amateur, HD Porn, Sex Movies, Teen, Threesome | 17713 Views |


Rate this girl !!!




pic\r\n\r\nWild And Crazy Student Sex Party \r\nStudentSexParties.com\r\n\r\nGenre: Outdoor, Teens, Anal, Group \r\n\r\nDescription: Student group sex HD Video Type: Video 720p\r\n\r\nSiteRipVideo: MPEG4 Video (H264) 1280×720 4700 kbps 50fps\r\n\r\n Audio: AAC 48000Hz stereo 128kbps\r\n\r\npic\r\n\r\npic\r\n\r\npic\r\n\r\npic\r\n\r\nPart 1 / 26 min 928 mb\r\n\r\nPart 2 / 27 min 823 mb\r\n\r\nPart 3 / 01.01 min 1.94 gb\r\n\r\nPart 4 / 01.05 min 1.75 gb



DOWNLOAD

Keep2share.cc - Uploaded.net - Openload.co - Rapidu.net


http://ryushare.com/qzihwgzihafv/SSP61.part1.rar
http://ryushare.com/dbcp1w846s72/SSP61.part2.rar
http://ryushare.com/lynps5xs2tbn/SSP61.part3.rar
http://ul.to/n4va52cu/SSP61.part1.rar
http://ul.to/zxjxbhui/SSP61.part2.rar
http://ul.to/w9uz0vtr/SSP61.part3.rar


Premium here:
uploaded.net
keep2share.cc
rapidu.net.cc

Teens related to Wild And Crazy Student Sex Party


Teen porn movies 2671 ryushare uploaded keep2share

Teen porn movies 2671

ww poran xxx hd com 226538 ryushare uploaded keep2share

ww poran xxx hd com 226538

Young Virgin Pussy Teen Fuck Tube 4173 ryushare uploaded keep2share

Young Virgin Pussy Teen Fuck Tube 4173

Teenage Fuck Clips 225869 ryushare uploaded keep2share

Teenage Fuck Clips 225869

Teeny Tini Striptease ryushare uploaded keep2share

Teeny Tini Striptease

K Three Teasing Tongues 4 ryushare uploaded keep2share

K Three Teasing Tongues 4

sex compress videos 226457 ryushare uploaded keep2share

sex compress videos 226457

Adult Hardcore XXX Sex Videos 4702 ryushare uploaded keep2share

Adult Hardcore XXX Sex Videos 4702

Fresh Teen Videos 3763 ryushare uploaded keep2share

Fresh Teen Videos 3763

x art angelica susie heidi orgy 226351 ryushare uploaded keep2share

x art angelica susie heidi orgy 226351

Wow Porn Movies download) 224985 ryushare uploaded keep2share

Wow Porn Movies download) 224985

Adult Hardcore XXX Sex Videos 4052 ryushare uploaded keep2share

Adult Hardcore XXX Sex Videos 4052

Girls sex art hd teens videos 225147 ryushare uploaded keep2share

Girls sex art hd teens videos 225147

hd xxx com dawonlod vedeo 226419 ryushare uploaded keep2share

hd xxx com dawonlod vedeo 226419

Teen Sex Porn Videos Free Nude Teens 3009 ryushare uploaded keep2share

Teen Sex Porn Videos Free Nude Teens 3009

Free High Quality Sex Movies 1901 ryushare uploaded keep2share

Free High Quality Sex Movies 1901

xxx video9 HDdownload com ryushare uploaded keep2share

xxx video9 HDdownload com

Hardcore Sex Hub 224794 ryushare uploaded keep2share

Hardcore Sex Hub 224794

Young Virgin Pussy Teen Fuck Tube 5513 ryushare uploaded keep2share

Young Virgin Pussy Teen Fuck Tube 5513

Teen xxx sex hd 225384 ryushare uploaded keep2share

Teen xxx sex hd 225384

Hot sex girls movies download 3478 ryushare uploaded keep2share

Hot sex girls movies download 3478

Sweet Teen Porn – Young Porn Videos 3641 ryushare uploaded keep2share

Sweet Teen Porn – Young Porn Videos 3641

Porn party teen girls 225121 ryushare uploaded keep2share

Porn party teen girls 225121

Cute face hot pussy – Angel Hot ryushare uploaded keep2share

Cute face hot pussy – Angel Hot

free download hd romance porn movie 226678 ryushare uploaded keep2share

free download hd romance porn movie 226678

2016 hd vizyon sexy cd filmler ryushare uploaded keep2share

2016 hd vizyon sexy cd filmler

Nude Teens fucking hard 5172 ryushare uploaded keep2share

Nude Teens fucking hard 5172

HD Teens Sex Tube Videos XxX 224988 ryushare uploaded keep2share

HD Teens Sex Tube Videos XxX 224988

High Definition Movies on HD 224800 ryushare uploaded keep2share

High Definition Movies on HD 224800

Teens in Porno young porn videos and free teen sex 225262 ryushare uploaded keep2share

Teens in Porno young porn videos and free teen sex 225262

Denni Fresh – 21Naturals ryushare uploaded keep2share

Denni Fresh – 21Naturals

Young Sex Movies 2030 ryushare uploaded keep2share

Young Sex Movies 2030

College Teen Sex 2994 ryushare uploaded keep2share

College Teen Sex 2994

bonksex videos ryushare uploaded keep2share

bonksex videos

Free High Quality Sex Movies 4863 ryushare uploaded keep2share

Free High Quality Sex Movies 4863

Report broken links / Post a comment

You must be logged in to post a comment.



General\r\nComplete name : D:\SSP61ssp6101-hd4-1.mp4\r\nFormat : MPEG-4\r\nFormat profile : Base Media\r\nCodec ID : isom\r\nFile size : 928 MiB\r\nDuration : 26mn 43s\r\nOverall bit rate : 4 855 Kbps\r\nWriting application : Lavf53.12.0\r\n\r\nVideo\r\nID : 1\r\nFormat : AVC\r\nFormat/Info : Advanced Video Codec\r\nFormat profile : [email protected]\r\nFormat settings, CABAC : Yes\r\nFormat settings, ReFrames : 4 frames\r\nCodec ID : avc1\r\nCodec ID/Info : Advanced Video Coding\r\nDuration : 26mn 43s\r\nBit rate : 4 717 Kbps\r\nWidth : 1 280 pixels\r\nHeight : 720 pixels\r\nDisplay aspect ratio : 16:9\r\nFrame rate mode : Constant\r\nFrame rate : 50.000 fps\r\nColor space : YUV\r\nChroma subsampling : 4:2:0\r\nBit depth : 8 bits\r\nScan type : Progressive\r\nBits/(Pixel*Frame) : 0.102\r\nStream size : 902 MiB (97%)\r\nWriting library : x264 core 116 r2074 2641b9e\r\nEncoding settings : cabac=1 / ref=3 / deblock=1:0:0 / analyse=0x3:0x113 / me=umh / subme=7 / psy=0 / mixed_ref=1 / me_range=16 / chroma_me=1 / trellis=1 / 8x8dct=1 / cqm=0 / deadzone=21,11 / fast_pskip=1 / chroma_qp_offset=0 / threads=6 / sliced_threads=0 / nr=0 / decimate=1 / interlaced=0 / bluray_compat=0 / constrained_intra=0 / bframes=3 / b_pyramid=2 / b_adapt=2 / b_bias=0 / direct=3 / weightb=1 / open_gop=0 / weightp=2 / keyint=150 / keyint_min=5 / scenecut=40 / intra_refresh=0 / rc_lookahead=40 / rc=crf / mbtree=1 / crf=20.0 / qcomp=0.60 / qpmin=12 / qpmax=51 / qpstep=4 / vbv_maxrate=6000 / vbv_bufsize=12000 / crf_max=0.0 / nal_hrd=none / ip_ratio=1.40 / aq=1:1.00\r\n\r\nAudio\r\nID : 2\r\nFormat : AAC\r\nFormat/Info : Advanced Audio Codec\r\nFormat profile : LC\r\nCodec ID : 40\r\nDuration : 26mn 43s\r\nBit rate mode : Constant\r\nBit rate : 128 Kbps\r\nChannel(s) : 2 channels\r\nChannel positions : Front: L R\r\nSampling rate : 48.0 KHz\r\nCompression mode : Lossy\r\nStream size : 24.5 MiB (3%)\r\n\r\n