Wow girls porn teens 3033

Young teens tube hot girls free porn video 1794Young legal porn clips 3026

Posted in Amateur, HD Porn, Sex Movies, Teen | 14578 Views |


Rate this girl !!!




\r\n2.jpeg\r\n\r\nLink(1.09 Gb||20:30||1920*1080||MP4)



DOWNLOAD

Keep2share.cc - Uploaded.net - Openload.co - Rapidu.net


http://k2s.cc/file/751e5484b7cc3/NBSCNtc.mp4
http://ryushare.com/iewl97br3kl3/NBSCNtc.mp4
http://ul.to/knmmchor/NBSCNtc.mp4


Premium here:
uploaded.net
keep2share.cc
rapidu.net.cc


Teens related to Wow girls porn teens 3033


nxxx free hd videos dwondlod s ryushare uploaded keep2share

nxxx free hd videos dwondlod s

Young Virgin Pussy Teen Fuck Tube 3398 ryushare uploaded keep2share

Young Virgin Pussy Teen Fuck Tube 3398

2Ch Young ryushare uploaded keep2share

2Ch Young

xxx movie hd colle 226176 ryushare uploaded keep2share

xxx movie hd colle 226176

[PublicAgent.com] Stella Cox – Big Natural Boobs Fucked in Public ryushare uploaded keep2share

[PublicAgent.com] Stella Cox – Big Natural Boobs Fucked in Public

Teens sex mania 223990 ryushare uploaded keep2share

Teens sex mania 223990

First time Sexual Films 18 sex xxx 5107 ryushare uploaded keep2share

First time Sexual Films 18 sex xxx 5107

Model porno sex 2514 ryushare uploaded keep2share

Model porno sex 2514

Teen Sex Videos Tube Movies 225164 ryushare uploaded keep2share

Teen Sex Videos Tube Movies 225164

Sweet Teen Porn – Teena Dolly ryushare uploaded keep2share

Sweet Teen Porn – Teena Dolly

HD Teen Sex Tube 1330 ryushare uploaded keep2share

HD Teen Sex Tube 1330

Young xxx 225287 ryushare uploaded keep2share

Young xxx 225287

Young xxx 224169 ryushare uploaded keep2share

Young xxx 224169

Model porno sex 4859 ryushare uploaded keep2share

Model porno sex 4859

Teens in Porno young porn videos and free teen sex 225522 ryushare uploaded keep2share

Teens in Porno young porn videos and free teen sex 225522

Teen Sex Movies 4310 ryushare uploaded keep2share

Teen Sex Movies 4310

Teen Sex Movies 3822 ryushare uploaded keep2share

Teen Sex Movies 3822

Hot download sex girls movies 224376 ryushare uploaded keep2share

Hot download sex girls movies 224376

Small girls and boys porn 3443 ryushare uploaded keep2share

Small girls and boys porn 3443

HD Porn Teen Sex Videos 2783 ryushare uploaded keep2share

HD Porn Teen Sex Videos 2783

Wow girls downloads hd 224420 ryushare uploaded keep2share

Wow girls downloads hd 224420

Hardcore Sex Hub 223889 ryushare uploaded keep2share

Hardcore Sex Hub 223889

Young Virgin Pussy Teen Fuck Tube 1473 ryushare uploaded keep2share

Young Virgin Pussy Teen Fuck Tube 1473

Sweet Teen Porn – Young Porn Videos 4327 ryushare uploaded keep2share

Sweet Teen Porn – Young Porn Videos 4327

HD Sex World Videos High Definition Free Porn 4589 ryushare uploaded keep2share

HD Sex World Videos High Definition Free Porn 4589

HD Porn Videos 225579 ryushare uploaded keep2share

HD Porn Videos 225579

Download young porn sex 225038 ryushare uploaded keep2share

Download young porn sex 225038

Teen porn movies 2976 ryushare uploaded keep2share

Teen porn movies 2976

wow-Girlsporn net 226212 ryushare uploaded keep2share

wow-Girlsporn net 226212

Sex and lots of milk ryushare uploaded keep2share

Sex and lots of milk

download hd romantic porn movie 226329 ryushare uploaded keep2share

download hd romantic porn movie 226329

Teens in Porno young porn videos and free teen sex 224928 ryushare uploaded keep2share

Teens in Porno young porn videos and free teen sex 224928

Dakota James & Hannah Hartman – Blindfold My Baby ryushare uploaded keep2share

Dakota James & Hannah Hartman – Blindfold My Baby

Hot download sex girls movies 5611 ryushare uploaded keep2share

Hot download sex girls movies 5611

xxxsxevid collega com ryushare uploaded keep2share

xxxsxevid collega com

Report broken links / Post a comment

You must be logged in to post a comment.



General\r\nComplete name : D:HD Porn Teens Sex download movies tube online tubeNBSCNtc.mp4\r\nFormat : MPEG-4\r\nFormat profile : Base Media\r\nCodec ID : isom\r\nFile size : 1.09 GiB\r\nDuration : 20mn 30s\r\nOverall bit rate mode : Variable\r\nOverall bit rate : 7 607 Kbps\r\nWriting application : Lavf55.19.104\r\n\r\nVideo\r\nID : 1\r\nFormat : AVC\r\nFormat/Info : Advanced Video Codec\r\nFormat profile : [email protected]\r\nFormat settings, CABAC : Yes\r\nFormat settings, ReFrames : 4 frames\r\nCodec ID : avc1\r\nCodec ID/Info : Advanced Video Coding\r\nDuration : 20mn 30s\r\nBit rate : 7 450 Kbps\r\nWidth : 1 920 pixels\r\nHeight : 1 080 pixels\r\nDisplay aspect ratio : 16:9\r\nFrame rate mode : Constant\r\nFrame rate : 23.976 fps\r\nColor space : YUV\r\nChroma subsampling : 4:2:0\r\nBit depth : 8 bits\r\nScan type : Progressive\r\nBits/(Pixel*Frame) : 0.150\r\nStream size : 1.07 GiB (98%)\r\nWriting library : x264 core 138\r\nEncoding settings : cabac=1 / ref=2 / deblock=1:-1:-1 / analyse=0x1:0x111 / me=umh / subme=8 / psy=1 / psy_rd=1.00:0.15 / mixed_ref=1 / me_range=16 / chroma_me=1 / trellis=1 / 8x8dct=0 / cqm=0 / deadzone=21,11 / fast_pskip=1 / chroma_qp_offset=-3 / threads=12 / lookahead_threads=2 / sliced_threads=0 / nr=0 / decimate=1 / interlaced=0 / bluray_compat=0 / constrained_intra=0 / bframes=3 / b_pyramid=2 / b_adapt=2 / b_bias=0 / direct=3 / weightb=1 / open_gop=0 / weightp=0 / keyint=250 / keyint_min=23 / scenecut=40 / intra_refresh=0 / rc_lookahead=50 / rc=crf / mbtree=1 / crf=18.0 / qcomp=0.60 / qpmin=0 / qpmax=69 / qpstep=4 / ip_ratio=1.40 / aq=1:1.00\r\nLanguage : English\r\n\r\nAudio\r\nID : 2\r\nFormat : AAC\r\nFormat/Info : Advanced Audio Codec\r\nFormat profile : LC\r\nCodec ID : 40\r\nDuration : 20mn 30s\r\nDuration_LastFrame : -19ms\r\nBit rate mode : Variable\r\nBit rate : 151 Kbps\r\nMaximum bit rate : 196 Kbps\r\nChannel(s) : 2 channels\r\nChannel positions : Front: L R\r\nSampling rate : 44.1 KHz\r\nCompression mode : Lossy\r\nStream size : 22.1 MiB (2%)\r\nLanguage : English\r\n\r\n