Wow porn tube movies 3838

XXX young porn sex 3841Teen porn movies 3835

Posted in HD Porn, Lesbian, Sex Movies, Teen, Threesome | 8678 Views |


Rate this girl !!!




cover

\r\n

1920x1080p / MP4 / 858.53 MB

\r\n

UPLOADED / RYUSHARE / FILEOM / KEEP2SHARE

\r\n \r\n

SCREENSHOTS:

\r\n

screens



DOWNLOAD

Keep2share.cc - Uploaded.net - Openload.co - Rapidu.net


http://fileom.com/xkmaflecvcmm/Thr33.Fl4v0rs.mp4.html
http://ryushare.com/6cckh2vwlg20/Thr33.Fl4v0rs.mp4
http://ul.to/hvsroblt/Thr33.Fl4v0rs.mp4
http://k2s.cc/file/4cc9a22babd2c/Thr33.Fl4v0rs.mp4


Premium here:
uploaded.net
keep2share.cc
rapidu.net.cc


Teens related to Wow porn tube movies 3838


Kira Queen ryushare uploaded keep2share

Kira Queen

Teen Pornstars Orgy ryushare uploaded keep2share

Teen Pornstars Orgy

Episode 240 – 20 years old GirlsDoPorn.com ryushare uploaded keep2share

Episode 240 – 20 years old GirlsDoPorn.com

Hd 89xxx vedios com 226476 ryushare uploaded keep2share

Hd 89xxx vedios com 226476

Model porno sex 3485 ryushare uploaded keep2share

Model porno sex 3485

girls high quality sex videos download 226282 ryushare uploaded keep2share

girls high quality sex videos download 226282

Rocco Siffredi Casting1080p ryushare uploaded keep2share

Rocco Siffredi Casting1080p

Teen porn movies 224217 ryushare uploaded keep2share

Teen porn movies 224217

teens xxx vetiyos ryushare uploaded keep2share

teens xxx vetiyos

Teen Porn XXX Tube 225056 ryushare uploaded keep2share

Teen Porn XXX Tube 225056

[TeensLikeItBig.com / Brazzers.com] Layla London (My Stepdaughter Loves Porn / 30.11.2016) [2016 г., Big Naturals,Big Tits,Big Tits Worship,Brunette,Cheating,Couples Fantasies,Natural Tits,Stepdaughter, 1080p] ryushare uploaded keep2share

[TeensLikeItBig.com / Brazzers.com] Layla London (My Stepdaughter Loves Porn / 30.11.2016) [2016 г., Big Naturals,Big Tits,Big Tits Worship,Brunette,Cheating,Couples Fantasies,Natural Tits,Stepdaughter, 1080p]

xxx hd move Hq 226564 ryushare uploaded keep2share

xxx hd move Hq 226564

First time Sexual Films 18 sex xxx 225013 ryushare uploaded keep2share

First time Sexual Films 18 sex xxx 225013

Fresh Teen Videos 1868 ryushare uploaded keep2share

Fresh Teen Videos 1868

Teen Porn XXX Tube 2208 ryushare uploaded keep2share

Teen Porn XXX Tube 2208

HD Teens Sex Tube Videos XxX 4315 ryushare uploaded keep2share

HD Teens Sex Tube Videos XxX 4315

Wow porn tube movies 3516 ryushare uploaded keep2share

Wow porn tube movies 3516

Free Teen Porn Videos at Teen Sex Tube XXX 1416 ryushare uploaded keep2share

Free Teen Porn Videos at Teen Sex Tube XXX 1416

wow cum com hd 226397 ryushare uploaded keep2share

wow cum com hd 226397

sex hd video hai quality downlard 226504 ryushare uploaded keep2share

sex hd video hai quality downlard 226504

HQ Sex Movies Download 1850 ryushare uploaded keep2share

HQ Sex Movies Download 1850

Young Sex Movies 5419 ryushare uploaded keep2share

Young Sex Movies 5419

Wow porn tube movies 4671 ryushare uploaded keep2share

Wow porn tube movies 4671

Teen Sex Movies Young Porn Tube Vids 1253 ryushare uploaded keep2share

Teen Sex Movies Young Porn Tube Vids 1253

Fucked by two cocks in all holes ryushare uploaded keep2share

Fucked by two cocks in all holes

High Definition Movies on HD Teen Porn XXX Tube 2483 ryushare uploaded keep2share

High Definition Movies on HD Teen Porn XXX Tube 2483

Young XXX Tube Videos 3884 ryushare uploaded keep2share

Young XXX Tube Videos 3884

www xxxsexncon ryushare uploaded keep2share

www xxxsexncon

HD xxx videos direct mobi downloads 226051 ryushare uploaded keep2share

HD xxx videos direct mobi downloads 226051

Porn party teen girls 225405 ryushare uploaded keep2share

Porn party teen girls 225405

hd images fucking sex 226738 ryushare uploaded keep2share

hd images fucking sex 226738

HD Sex World Videos High Definition Free Porn 225387 ryushare uploaded keep2share

HD Sex World Videos High Definition Free Porn 225387

Free Teen Porn Videos at Teen Sex Tube XXX 225428 ryushare uploaded keep2share

Free Teen Porn Videos at Teen Sex Tube XXX 225428

Hd avi xxx sexy in ryushare uploaded keep2share

Hd avi xxx sexy in

Wow porn tube movies 5631 ryushare uploaded keep2share

Wow porn tube movies 5631

Report broken links / Post a comment

You must be logged in to post a comment.



General\r\nComplete name : D:hd tube amateur porn young girls sex direct download online movies clips\r\nryushare.com uploaded.net keep2share.cc fileom.com streamcloud.eu allmyvideos.net ul.to download porn movies clip\r\n Beata Maria Pie And Nomi - Three Flavors.mp4\r\nFormat : MPEG-4\r\nFormat profile : Base Media\r\nCodec ID : isom\r\nFile size : 859 MiB\r\nDuration : 28mn 27s\r\nOverall bit rate mode : Variable\r\nOverall bit rate : 4 218 Kbps\r\nWriting application : Lavf55.33.100\r\n\r\nVideo\r\nID : 1\r\nFormat : AVC\r\nFormat/Info : Advanced Video Codec\r\nFormat profile : [email protected]\r\nFormat settings, CABAC : Yes\r\nFormat settings, ReFrames : 5 frames\r\nCodec ID : avc1\r\nCodec ID/Info : Advanced Video Coding\r\nDuration : 28mn 27s\r\nBit rate : 4 097 Kbps\r\nWidth : 1 920 pixels\r\nHeight : 1 080 pixels\r\nDisplay aspect ratio : 16:9\r\nFrame rate mode : Constant\r\nFrame rate : 29.970 fps\r\nColor space : YUV\r\nChroma subsampling : 4:2:0\r\nBit depth : 8 bits\r\nScan type : Progressive\r\nBits/(Pixel*Frame) : 0.066\r\nStream size : 834 MiB (97%)\r\nWriting library : x264 core 138\r\nEncoding settings : cabac=1 / ref=5 / deblock=1:-1:-1 / analyse=0x3:0x113 / me=umh / subme=8 / psy=1 / psy_rd=1.00:0.15 / mixed_ref=1 / me_range=16 / chroma_me=1 / trellis=1 / 8x8dct=1 / cqm=0 / deadzone=21,11 / fast_pskip=1 / chroma_qp_offset=-3 / threads=8 / lookahead_threads=1 / sliced_threads=0 / nr=0 / decimate=1 / interlaced=0 / bluray_compat=0 / constrained_intra=0 / bframes=3 / b_pyramid=2 / b_adapt=2 / b_bias=0 / direct=3 / weightb=1 / open_gop=0 / weightp=2 / keyint=250 / keyint_min=25 / scenecut=40 / intra_refresh=0 / rc_lookahead=50 / rc=crf / mbtree=1 / crf=20.0 / qcomp=0.60 / qpmin=0 / qpmax=69 / qpstep=4 / ip_ratio=1.40 / aq=1:1.00\r\nLanguage : Russian\r\n\r\nAudio\r\nID : 2\r\nFormat : AAC\r\nFormat/Info : Advanced Audio Codec\r\nFormat profile : LC\r\nCodec ID : 40\r\nDuration : 28mn 27s\r\nBit rate mode : Variable\r\nBit rate : 112 Kbps\r\nMaximum bit rate : 192 Kbps\r\nChannel(s) : 2 channels\r\nChannel positions : Front: L R\r\nSampling rate : 44.1 KHz\r\nCompression mode : Lossy\r\nStream size : 22.8 MiB (3%)\r\nLanguage : Russian\r\n\r\n\r\n\r\nRAPIDGATOR / UPLOADED / UPLOADABLE / KEEP2SHARE\r\nUPLOADED / RYUSHARE / FILEOM / KEEP2SHARE\r\n\r\nhd tube amateur porn young girls sex direct download online movies clips\r\nryushare.com uploaded.net keep2share.cc fileom.com streamcloud.eu allmyvideos.net ul.to download porn movies clip