WowGirls.com Vanda, Violette – Ill Teach You

Teen Tits Tube, Young Girls Porn Videos 3923Tube Young Sex 5078

Posted in HD Porn, Lesbian, Sex Movies, Teen | 33104 Views |


Rate this girl !!!




cover\r\n\r\n1920x1080p / MP4 / 1000 MB\r\n

[WowGirls.com] Vanda, Violette – Ill Teach You

\r\nSCREENSHOTS:\r\n\r\nscreens



DOWNLOAD

Keep2share.cc - Uploaded.net - Openload.co - Rapidu.net


http://played.to/ho21n2d1rnea

http://ul.to/ov7h6uc2/V4nd4,%20V10l3tt3%20-%201ll%20T34ch%20Y0v%202014.mp4


Premium here:
uploaded.net
keep2share.cc
rapidu.net.cc


Teens related to WowGirls.com Vanda, Violette – Ill Teach You


Hot Teen Sex HD videos 224002 ryushare uploaded keep2share

Hot Teen Sex HD videos 224002

Our Kind Of Fun ryushare uploaded keep2share

Our Kind Of Fun

Janice Griffith – Fucking Her Right ryushare uploaded keep2share

Janice Griffith – Fucking Her Right

Alysa Gap & Beata Undine – Bounty Of Meat ryushare uploaded keep2share

Alysa Gap & Beata Undine – Bounty Of Meat

ساريه السواس افلامsexx sexx xxxxxx xxx 226756 ryushare uploaded keep2share

ساريه السواس افلامsexx sexx xxxxxx xxx 226756

Linda S – YES Girl ryushare uploaded keep2share

Linda S – YES Girl

Girls do porn in HD 224007 ryushare uploaded keep2share

Girls do porn in HD 224007

Wow Girls Porn Clips download 224663 ryushare uploaded keep2share

Wow Girls Porn Clips download 224663

PrivateSexTapes yulia anal ryushare uploaded keep2share

PrivateSexTapes yulia anal

Hd young videos 225324 ryushare uploaded keep2share

Hd young videos 225324

High Definition Movies on HD 1647 ryushare uploaded keep2share

High Definition Movies on HD 1647

smoll girl 18sexhd com ryushare uploaded keep2share

smoll girl 18sexhd com

Hot amateur ryushare uploaded keep2share

Hot amateur

Wow porn hd downloads 224041 ryushare uploaded keep2share

Wow porn hd downloads 224041

Free Young Porn Videos XXX Teen Porn 223975 ryushare uploaded keep2share

Free Young Porn Videos XXX Teen Porn 223975

Nude Teens fucking hard 5025 ryushare uploaded keep2share

Nude Teens fucking hard 5025

Klixen – K Two Teasing Tongues 12 – A ryushare uploaded keep2share

Klixen – K Two Teasing Tongues 12 – A

Porn HD Sex HD Teen Sex 224857 ryushare uploaded keep2share

Porn HD Sex HD Teen Sex 224857

Nubiles-Porn.com Halle Von – Training To Please ryushare uploaded keep2share

Nubiles-Porn.com Halle Von – Training To Please

xxx sexy moovi pchd download ryushare uploaded keep2share

xxx sexy moovi pchd download

Porno movies young teens lesbian 224977 ryushare uploaded keep2share

Porno movies young teens lesbian 224977

Sweet Teen Porn – Young Porn Videos 225089 ryushare uploaded keep2share

Sweet Teen Porn – Young Porn Videos 225089

Wow porn hd downloads 224319 ryushare uploaded keep2share

Wow porn hd downloads 224319

[PublicAgent.com] Caroline Ardolino – Milf gets fucked hard for cash ryushare uploaded keep2share

[PublicAgent.com] Caroline Ardolino – Milf gets fucked hard for cash

Www sex Full PcVideo ryushare uploaded keep2share

Www sex Full PcVideo

Nude Teens fucking hard 225614 ryushare uploaded keep2share

Nude Teens fucking hard 225614

K Craving Lips 3 – A ryushare uploaded keep2share

K Craving Lips 3 – A

First time Sexual Films 18 sex xxx 5710 ryushare uploaded keep2share

First time Sexual Films 18 sex xxx 5710

Teen Tits Tube, Young Girls Porn Videos 3672 ryushare uploaded keep2share

Teen Tits Tube, Young Girls Porn Videos 3672

Wow porn tube movies 4986 ryushare uploaded keep2share

Wow porn tube movies 4986

Kavol Lilien ryushare uploaded keep2share

Kavol Lilien

www hd xxxxxx bideos com 226676 ryushare uploaded keep2share

www hd xxxxxx bideos com 226676

HD sex movies downloads 2913 ryushare uploaded keep2share

HD sex movies downloads 2913

Young Sex Movies 1507 ryushare uploaded keep2share

Young Sex Movies 1507

Tube Young Sex 224693 ryushare uploaded keep2share

Tube Young Sex 224693

Report broken links / Post a comment

You must be logged in to post a comment.



[WowGirls.com] Vanda, Violette – Ill Teach You \r\n\r\nGeneral\r\nComplete name : J:HD Teens Movies Young Downloads Online Clips Scenes [WowGirls.com] Vanda, Violette – Ill Teach You 2014.mp4\r\nFormat : MPEG-4\r\nFormat profile : Base Media\r\nCodec ID : isom\r\nFile size : 1 000 MiB\r\nDuration : 27mn 2s\r\nOverall bit rate mode : Variable\r\nOverall bit rate : 5 170 Kbps\r\nWriting application : Lavf55.33.100\r\n\r\nVideo\r\nID : 1\r\nFormat : AVC\r\nFormat/Info : Advanced Video Codec\r\nFormat profile : [email protected]\r\nFormat settings, CABAC : Yes\r\nFormat settings, ReFrames : 5 frames\r\nCodec ID : avc1\r\nCodec ID/Info : Advanced Video Coding\r\nDuration : 27mn 2s\r\nBit rate : 5 064 Kbps\r\nWidth : 1 920 pixels\r\nHeight : 1 080 pixels\r\nDisplay aspect ratio : 16:9\r\nFrame rate mode : Constant\r\nFrame rate : 29.970 fps\r\nColor space : YUV\r\nChroma subsampling : 4:2:0\r\nBit depth : 8 bits\r\nScan type : Progressive\r\nBits/(Pixel*Frame) : 0.081\r\nStream size : 979 MiB (98%)\r\nWriting library : x264 core 138\r\nEncoding settings : cabac=1 / ref=5 / deblock=1:-1:-1 / analyse=0x3:0x113 / me=umh / subme=8 / psy=1 / psy_rd=1.00:0.15 / mixed_ref=1 / me_range=16 / chroma_me=1 / trellis=1 / 8x8dct=1 / cqm=0 / deadzone=21,11 / fast_pskip=1 / chroma_qp_offset=-3 / threads=8 / lookahead_threads=1 / sliced_threads=0 / nr=0 / decimate=1 / interlaced=0 / bluray_compat=0 / constrained_intra=0 / bframes=3 / b_pyramid=2 / b_adapt=2 / b_bias=0 / direct=3 / weightb=1 / open_gop=0 / weightp=2 / keyint=250 / keyint_min=25 / scenecut=40 / intra_refresh=0 / rc_lookahead=50 / rc=crf / mbtree=1 / crf=20.0 / qcomp=0.60 / qpmin=0 / qpmax=69 / qpstep=4 / ip_ratio=1.40 / aq=1:1.00\r\nLanguage : Russian\r\n\r\nAudio\r\nID : 2\r\nFormat : AAC\r\nFormat/Info : Advanced Audio Codec\r\nFormat profile : LC\r\nCodec ID : 40\r\nDuration : 27mn 2s\r\nBit rate mode : Variable\r\nBit rate : 96.0 Kbps\r\nMaximum bit rate : 192 Kbps\r\nChannel count : 2 channels\r\nChannel positions : Front: L R\r\nSampling rate : 44.1 KHz\r\nCompression mode : Lossy\r\nStream size : 18.7 MiB (2%)\r\nLanguage : Russian\r\n\r\n