[WowPorn.com] Feona – Humans Needs. R E D

18YearsOld.com Megan Rain – Playing HookyHD Porn Teen Sex Videos 2182

Posted in Amateur, HD Porn, Sex Movies, Teen | 7902 Views |


Rate this girl !!!




cover\r\n\r\n1920x1080p / MP4 / 887.6 MB\r\n

[WowPorn.com] Feona – Humans Needs. R E D

\r\n \r\n

\r\nSCREENSHOTS:\r\n\r\nscreens



DOWNLOAD

Keep2share.cc - Uploaded.net - Openload.co - Rapidu.net


http://ul.to/6plkt3y9/F30n4_Hvm4ns_N33ds._R_3_D_HD1080.mp4
http://played.to/w7hfikakqxnv


Premium here:
uploaded.net
keep2share.cc
rapidu.net.cc


Teens related to [WowPorn.com] Feona – Humans Needs. R E D


Nude Teens fucking hard 224248 ryushare uploaded keep2share

Nude Teens fucking hard 224248

sex videos in mkv free download 226464 ryushare uploaded keep2share

sex videos in mkv free download 226464

Sweet Teen Porn – Young Porn Videos 223999 ryushare uploaded keep2share

Sweet Teen Porn – Young Porn Videos 223999

Hot Teen Sex HD videos 2678 ryushare uploaded keep2share

Hot Teen Sex HD videos 2678

Evening at home with brunette ryushare uploaded keep2share

Evening at home with brunette

Young Sex Movies 224764 ryushare uploaded keep2share

Young Sex Movies 224764

Movies Young legal porn 5205 ryushare uploaded keep2share

Movies Young legal porn 5205

Janette – Today Was Amazing ryushare uploaded keep2share

Janette – Today Was Amazing

Two cocks for a teen ryushare uploaded keep2share

Two cocks for a teen

Hot sex girls movies download 4514 ryushare uploaded keep2share

Hot sex girls movies download 4514

Hd quality – Teen sex video 223701 ryushare uploaded keep2share

Hd quality – Teen sex video 223701

Jungle Fever – Beata, Anjelica ryushare uploaded keep2share

Jungle Fever – Beata, Anjelica

Hot hd teen sex videos 4668 ryushare uploaded keep2share

Hot hd teen sex videos 4668

Sasha Foxxx (Sasha’s edging orgasm control) ryushare uploaded keep2share

Sasha Foxxx (Sasha’s edging orgasm control)

Adult Hardcore XXX Sex Videos 4965 ryushare uploaded keep2share

Adult Hardcore XXX Sex Videos 4965

The best Teen sex 3727 ryushare uploaded keep2share

The best Teen sex 3727

Free High Quality Sex Movies 3816 ryushare uploaded keep2share

Free High Quality Sex Movies 3816

www xxx Bif videos HD ryushare uploaded keep2share

www xxx Bif videos HD

Teens sex mania 5524 ryushare uploaded keep2share

Teens sex mania 5524

Fresh Teen Videos 224890 ryushare uploaded keep2share

Fresh Teen Videos 224890

Klixen – K Fantasies of a Piano Player ryushare uploaded keep2share

Klixen – K Fantasies of a Piano Player

HD Sex World Videos High Definition Free Porn 225951 ryushare uploaded keep2share

HD Sex World Videos High Definition Free Porn 225951

Teen Sex Videos Tube Movies 1942 ryushare uploaded keep2share

Teen Sex Videos Tube Movies 1942

Wow Porn Movies download) 224985 ryushare uploaded keep2share

Wow Porn Movies download) 224985

xxx garls and boys 226650 ryushare uploaded keep2share

xxx garls and boys 226650

HD sex movies downloads 3974 ryushare uploaded keep2share

HD sex movies downloads 3974

Nice porn teen video mp4 quality ryushare uploaded keep2share

Nice porn teen video mp4 quality

Teen Sex Movies Young Porn Tube Vids 224610 ryushare uploaded keep2share

Teen Sex Movies Young Porn Tube Vids 224610

Sex with porn model in garaje Orgy Threesome 4772 ryushare uploaded keep2share

Sex with porn model in garaje Orgy Threesome 4772

HD Teens Sex Tube Videos XxX 3653 ryushare uploaded keep2share

HD Teens Sex Tube Videos XxX 3653

Teen porn xxx 223828 ryushare uploaded keep2share

Teen porn xxx 223828

sex videos of 4 MB to download 226246 ryushare uploaded keep2share

sex videos of 4 MB to download 226246

English hot giral sex 226062 ryushare uploaded keep2share

English hot giral sex 226062

HD Teens Sex Tube Videos XxX 5400 ryushare uploaded keep2share

HD Teens Sex Tube Videos XxX 5400

Report broken links / Post a comment

You must be logged in to post a comment.



General\r\nComplete name : J:HD Teens Movies Young Downloads Online Clips Scenes [WowPorn.com] Feona – Humans Needs. R E D HD1080.mp4\r\nFormat : MPEG-4\r\nFormat profile : Base Media\r\nCodec ID : isom\r\nFile size : 888 MiB\r\nDuration : 20mn 49s\r\nOverall bit rate mode : Variable\r\nOverall bit rate : 5 961 Kbps\r\nWriting application : Lavf55.33.100\r\n\r\nVideo\r\nID : 1\r\nFormat : AVC\r\nFormat/Info : Advanced Video Codec\r\nFormat profile : [email protected]\r\nFormat settings, CABAC : Yes\r\nFormat settings, ReFrames : 5 frames\r\nCodec ID : avc1\r\nCodec ID/Info : Advanced Video Coding\r\nDuration : 20mn 49s\r\nBit rate : 5 857 Kbps\r\nWidth : 1 920 pixels\r\nHeight : 1 080 pixels\r\nDisplay aspect ratio : 16:9\r\nFrame rate mode : Constant\r\nFrame rate : 59.940 fps\r\nColor space : YUV\r\nChroma subsampling : 4:2:0\r\nBit depth : 8 bits\r\nScan type : Progressive\r\nBits/(Pixel*Frame) : 0.047\r\nStream size : 872 MiB (98%)\r\nWriting library : x264 core 138\r\nEncoding settings : cabac=1 / ref=5 / deblock=1:-1:-1 / analyse=0x3:0x113 / me=umh / subme=8 / psy=1 / psy_rd=1.00:0.15 / mixed_ref=1 / me_range=16 / chroma_me=1 / trellis=1 / 8x8dct=1 / cqm=0 / deadzone=21,11 / fast_pskip=1 / chroma_qp_offset=-3 / threads=8 / lookahead_threads=1 / sliced_threads=0 / nr=0 / decimate=1 / interlaced=0 / bluray_compat=0 / constrained_intra=0 / bframes=3 / b_pyramid=2 / b_adapt=2 / b_bias=0 / direct=3 / weightb=1 / open_gop=0 / weightp=2 / keyint=250 / keyint_min=25 / scenecut=40 / intra_refresh=0 / rc_lookahead=50 / rc=crf / mbtree=1 / crf=20.0 / qcomp=0.60 / qpmin=0 / qpmax=69 / qpstep=4 / ip_ratio=1.40 / aq=1:1.00\r\nLanguage : Russian\r\n\r\nAudio\r\nID : 2\r\nFormat : AAC\r\nFormat/Info : Advanced Audio Codec\r\nFormat profile : LC\r\nCodec ID : 40\r\nDuration : 20mn 49s\r\nBit rate mode : Variable\r\nBit rate : 90.5 Kbps\r\nMaximum bit rate : 192 Kbps\r\nChannel count : 2 channels\r\nChannel positions : Front: L R\r\nSampling rate : 44.1 KHz\r\nCompression mode : Lossy\r\nStream size : 13.5 MiB (2%)\r\nLanguage : Russian\r\n\r\n