Young legal porn clips 3026

Wow girls porn teens 3033Young legal porn clips 3020

Posted in Amateur, HD Porn, Pornstar, Sex Movies, Threesome | 8264 Views |


Rate this girl !!!




\r\n\r\n\r\n\r\n\r\n6.jpeg\r\n\r\nLink(913 Mb||37:10||1280*720||MP4)



DOWNLOAD

Keep2share.cc - Uploaded.net - Openload.co - Rapidu.net


http://k2s.cc/file/2123215a0919b/MSBDSky.mp4
http://ryushare.com/x3j3qvck2c5y/MSBDSky.mp4
http://ul.to/gvm6ia2d/MSBDSky.mp4


Premium here:
uploaded.net
keep2share.cc
rapidu.net.cc


Teens related to Young legal porn clips 3026


Tube Young Sex 3436 ryushare uploaded keep2share

Tube Young Sex 3436

Jasmine Caro – All day long ryushare uploaded keep2share

Jasmine Caro – All day long

1080P full hd hordcore sex movies ryushare uploaded keep2share

1080P full hd hordcore sex movies

xvideos hd com dounlod 226335 ryushare uploaded keep2share

xvideos hd com dounlod 226335

First time Sexual Films 18 sex xxx 5107 ryushare uploaded keep2share

First time Sexual Films 18 sex xxx 5107

HD Teen Sex Tube 3572 ryushare uploaded keep2share

HD Teen Sex Tube 3572

Wow Girls Porn Clips download 5142 ryushare uploaded keep2share

Wow Girls Porn Clips download 5142

Free High Quality Sex Movies 2128 ryushare uploaded keep2share

Free High Quality Sex Movies 2128

Riley Reid – Forget Me Not ryushare uploaded keep2share

Riley Reid – Forget Me Not

Teen Porn XXX Tube 224909 ryushare uploaded keep2share

Teen Porn XXX Tube 224909

Hot hd teen sex videos 2966 ryushare uploaded keep2share

Hot hd teen sex videos 2966

Wow girls downloads hd 5433 ryushare uploaded keep2share

Wow girls downloads hd 5433

Wow porn hd downloads 224035 ryushare uploaded keep2share

Wow porn hd downloads 224035

Teen Porn XXX Tube 225056 ryushare uploaded keep2share

Teen Porn XXX Tube 225056

download teen hd porn video small size ryushare uploaded keep2share

download teen hd porn video small size

[JulesJordan.com] Karmen Karma (Karmen Karma’s Wet Ass Devours A Cock / 03.02.2016) [2016 г., Anal, Big Butts, Big Tits, Blowjobs, Brunettes, Facial, Tattoo, 720p] ryushare uploaded keep2share

[JulesJordan.com] Karmen Karma (Karmen Karma’s Wet Ass Devours A Cock / 03.02.2016) [2016 г., Anal, Big Butts, Big Tits, Blowjobs, Brunettes, Facial, Tattoo, 720p]

HD Porn Videos 4330 ryushare uploaded keep2share

HD Porn Videos 4330

Wow porn hd downloads 224041 ryushare uploaded keep2share

Wow porn hd downloads 224041

Hot Teen Sex 2747 ryushare uploaded keep2share

Hot Teen Sex 2747

Hd young videos 3698 ryushare uploaded keep2share

Hd young videos 3698

NubileFilms.com Taylor Whyte – Finally Home ryushare uploaded keep2share

NubileFilms.com Taylor Whyte – Finally Home

Teen porn movies 224809 ryushare uploaded keep2share

Teen porn movies 224809

HD Porn Video 2499 ryushare uploaded keep2share

HD Porn Video 2499

Teen Sex Movies 1210 ryushare uploaded keep2share

Teen Sex Movies 1210

www hdfuckvidoes com ryushare uploaded keep2share

www hdfuckvidoes com

best teen sex mobi 226301 ryushare uploaded keep2share

best teen sex mobi 226301

Teen xxx sex hd 224866 ryushare uploaded keep2share

Teen xxx sex hd 224866

Rocco Siffredi Casting1080p ryushare uploaded keep2share

Rocco Siffredi Casting1080p

College Teen Sex 1987 ryushare uploaded keep2share

College Teen Sex 1987

Free Young Porn Videos XXX Teen Porn 225794 ryushare uploaded keep2share

Free Young Porn Videos XXX Teen Porn 225794

Alexis Brill A Dose Of Pantyhose ryushare uploaded keep2share

Alexis Brill A Dose Of Pantyhose

film sexx japan hd mqnia 226026 ryushare uploaded keep2share

film sexx japan hd mqnia 226026

J. Joanna (Shoot It For Me / 15.12.13) ryushare uploaded keep2share

J. Joanna (Shoot It For Me / 15.12.13)

Young Sex Movies 3968 ryushare uploaded keep2share

Young Sex Movies 3968

High Definition Movies on HD 224755 ryushare uploaded keep2share

High Definition Movies on HD 224755

Report broken links / Post a comment

You must be logged in to post a comment.



General\r\nComplete name : D:HD Porn Teens Sex download movies tube online tubeMSBDSky.mp4\r\nFormat : MPEG-4\r\nFormat profile : QuickTime\r\nCodec ID : qt \r\nFile size : 913 MiB\r\nDuration : 37mn 10s\r\nOverall bit rate mode : Variable\r\nOverall bit rate : 3 433 Kbps\r\nMovie name : quality_time_big-1080_epidemz.net_styanulo.net\r\nWriting application : Lavf54.63.104\r\n\r\nVideo\r\nID : 1\r\nFormat : MPEG-4 Visual\r\nFormat profile : [email protected]\r\nFormat settings, BVOP : No\r\nFormat settings, QPel : No\r\nFormat settings, GMC : No warppoints\r\nFormat settings, Matrix : Default (H.263)\r\nCodec ID : 20\r\nDuration : 37mn 10s\r\nBit rate mode : Constant\r\nBit rate : 3 298 Kbps\r\nWidth : 1 280 pixels\r\nHeight : 720 pixels\r\nDisplay aspect ratio : 16:9\r\nFrame rate mode : Constant\r\nFrame rate : 29.970 fps\r\nColor space : YUV\r\nChroma subsampling : 4:2:0\r\nBit depth : 8 bits\r\nScan type : Progressive\r\nCompression mode : Lossy\r\nBits/(Pixel*Frame) : 0.119\r\nStream size : 877 MiB (96%)\r\nWriting library : Lavc54.92.100\r\nLanguage : English\r\n\r\nAudio\r\nID : 2\r\nFormat : AAC\r\nFormat/Info : Advanced Audio Codec\r\nFormat profile : LC\r\nCodec ID : 40\r\nDuration : 37mn 10s\r\nBit rate mode : Variable\r\nBit rate : 128 Kbps\r\nMaximum bit rate : 3 300 Kbps\r\nChannel(s) : 2 channels\r\nChannel positions : Front: L R\r\nSampling rate : 44.1 KHz\r\nCompression mode : Lossy\r\nStream size : 34.0 MiB (4%)\r\nLanguage : English\r\n\r\n