Young russian – Clubseventeen

Tanned teen in pink sofaOrgy with young teens

Posted in HD Porn, Sex Movies, Teen | 12680 Views |


Rate this girl !!!




\r\n\r\nhttp://img55.imagetwist.com/i/05154/i32v6ut07wmw.jpeg\r\n\r\nYoung russian – Clubseventeen\r\n\r\n Link(507 Mb||22:16||720*540||WMV) \r\n\r\nClubseventeen FULL SITERIP\r\n\r\nFull Siterip Part1\r\n\r\nFull Siterip Part2\r\n\r\nFull Siterip Part3\r\n\r\n \r\n\r\n 



DOWNLOAD

Keep2share.cc - Uploaded.net - Openload.co - Rapidu.net


http://keep2share.cc/file/52e5bc9e2e898
http://ryushare.com/ogfup59vb6kv/SNDCHRsy.rar
http://ul.to/qoxl3fe3


Premium here:
uploaded.net
keep2share.cc
rapidu.net.cc

Teens related to Young russian – Clubseventeen


K Three Teasing Tongues 4 ryushare uploaded keep2share

K Three Teasing Tongues 4

Amateur Teen Sex 5266 ryushare uploaded keep2share

Amateur Teen Sex 5266

Mega – Time To Fuck – Episode 432 ryushare uploaded keep2share

Mega – Time To Fuck – Episode 432

Hardcore Sex Hub 4013 ryushare uploaded keep2share

Hardcore Sex Hub 4013

Teen acrobat sex ryushare uploaded keep2share

Teen acrobat sex

Young XXX Tube Videos 3807 ryushare uploaded keep2share

Young XXX Tube Videos 3807

www 18 videos lk ryushare uploaded keep2share

www 18 videos lk

Teenage Fuck Clips 3405 ryushare uploaded keep2share

Teenage Fuck Clips 3405

Sweet Teen Porn – Young Porn Videos 1409 ryushare uploaded keep2share

Sweet Teen Porn – Young Porn Videos 1409

Young XXX Tube Videos 223682 ryushare uploaded keep2share

Young XXX Tube Videos 223682

Hd young videos 4525 ryushare uploaded keep2share

Hd young videos 4525

Teenage Fuck Clips 225863 ryushare uploaded keep2share

Teenage Fuck Clips 225863

High Definition Movies on HD 5169 ryushare uploaded keep2share

High Definition Movies on HD 5169

Teen Sex Videos Tube Movies 3941 ryushare uploaded keep2share

Teen Sex Videos Tube Movies 3941

Porn party teen girls 224803 ryushare uploaded keep2share

Porn party teen girls 224803

Hd quality – Teen sex video 3683 ryushare uploaded keep2share

Hd quality – Teen sex video 3683

Young 720p hd porn 3975 ryushare uploaded keep2share

Young 720p hd porn 3975

very low size hd porn videos ryushare uploaded keep2share

very low size hd porn videos

Wow Girls Porn Clips download 5142 ryushare uploaded keep2share

Wow Girls Porn Clips download 5142

Uploaded net porn XXX 225809 ryushare uploaded keep2share

Uploaded net porn XXX 225809

Teen porn movies 2560 ryushare uploaded keep2share

Teen porn movies 2560

Hot Teen Sex HD videos 224776 ryushare uploaded keep2share

Hot Teen Sex HD videos 224776

Fresh Teen Videos 4217 ryushare uploaded keep2share

Fresh Teen Videos 4217

Teen porn xxx 225534 ryushare uploaded keep2share

Teen porn xxx 225534

Tube xxx 5228 ryushare uploaded keep2share

Tube xxx 5228

HD Porn Teen Sex Videos 2783 ryushare uploaded keep2share

HD Porn Teen Sex Videos 2783

tits free ryushare uploaded keep2share

tits free

Hardcore sex videos in the high definition quality 1260 ryushare uploaded keep2share

Hardcore sex videos in the high definition quality 1260

Wow Girls Porn Clips download 5439 ryushare uploaded keep2share

Wow Girls Porn Clips download 5439

Teen Tits Tube, Young Girls Porn Videos 6209 ryushare uploaded keep2share

Teen Tits Tube, Young Girls Porn Videos 6209

HD Porn Video 1352 ryushare uploaded keep2share

HD Porn Video 1352

Teen Porn XXX Tube 225056 ryushare uploaded keep2share

Teen Porn XXX Tube 225056

Pchd full fuckin video 226436 ryushare uploaded keep2share

Pchd full fuckin video 226436

HD Porn Video 1421 ryushare uploaded keep2share

HD Porn Video 1421

Babes Giselle Leon 1080p ryushare uploaded keep2share

Babes Giselle Leon 1080p

Report broken links / Post a comment

You must be logged in to post a comment.



General\r\nComplete name : D:Clubseventeen FULL SITERIPSNDCHRsySNDCHRsy.wmv\r\nFormat : Windows Media\r\nFile size : 507 MiB\r\nDuration : 22mn 16s\r\nOverall bit rate mode : Variable\r\nOverall bit rate : 3 184 Kbps\r\nMaximum Overall bit rate : 3 216 Kbps\r\nMovie name : seventeen.nl\r\nEncoded date : UTC 2008-12-04 01:42:52.783\r\nCopyright : International Media Company\r\n\r\nVideo\r\nID : 2\r\nFormat : VC-1\r\nFormat profile : [email protected]\r\nCodec ID : WMV3\r\nCodec ID/Info : Windows Media Video 9\r\nCodec ID/Hint : WMV3\r\nDescription of the codec : Windows Media Video 9 - Professional\r\nDuration : 22mn 16s\r\nBit rate mode : Variable\r\nBit rate : 3 052 Kbps\r\nWidth : 720 pixels\r\nHeight : 540 pixels\r\nDisplay aspect ratio : 4:3\r\nFrame rate : 25.000 fps\r\nColor space : YUV\r\nChroma subsampling : 4:2:0\r\nBit depth : 8 bits\r\nScan type : Progressive\r\nCompression mode : Lossy\r\nBits/(Pixel*Frame) : 0.314\r\nStream size : 486 MiB (96%)\r\nLanguage : English\r\n\r\nAudio\r\nID : 1\r\nFormat : WMA\r\nFormat version : Version 2\r\nCodec ID : 161\r\nCodec ID/Info : Windows Media Audio\r\nDescription of the codec : Windows Media Audio 9.2 - 128 kbps, 48 kHz, stereo (A/V) 1-pass CBR\r\nDuration : 22mn 16s\r\nBit rate mode : Constant\r\nBit rate : 128 Kbps\r\nChannel(s) : 2 channels\r\nSampling rate : 48.0 KHz\r\nBit depth : 16 bits\r\nStream size : 20.4 MiB (4%)\r\nLanguage : English\r\n\r\n