Young Sex Movies 1400

Tube Young Sex 1406Teen Sex Videos Tube Movies 1396

Posted in Amateur, HD Porn, Sex Movies, Teen | 10387 Views |


Rate this girl !!!




\r\n\r\n\r\nhttp://img102.imagetwist.com/i/05205/iv1ow3f0adsx.jpeg\r\n\r\n Link(595 Mb||26:25||720*576||WMV)



DOWNLOAD

Keep2share.cc - Uploaded.net - Openload.co - Rapidu.net


http://keep2share.cc/file/51ef50d396d5d
http://ryushare.com/em36l7c2fyuj/TNSMSYl2.rar
http://ul.to/ak7oexl1


Premium here:
uploaded.net
keep2share.cc
rapidu.net.cc


Teens related to Young Sex Movies 1400


High Definition Movies on HD 1647 ryushare uploaded keep2share

High Definition Movies on HD 1647

www sexvideo hd1280 226502 ryushare uploaded keep2share

www sexvideo hd1280 226502

Hardcore Sex Hub 225124 ryushare uploaded keep2share

Hardcore Sex Hub 225124

Susan Ayn ryushare uploaded keep2share

Susan Ayn

Small girls and boys porn 4062 ryushare uploaded keep2share

Small girls and boys porn 4062

download hot pussy xxx HD video ryushare uploaded keep2share

download hot pussy xxx HD video

Teen Sex Movies 224712 ryushare uploaded keep2share

Teen Sex Movies 224712

[MyFirstSexTeacher.com / NaughtyAmerica.com] Olivia Austin (01.12.2016) [Big Tits,Blonde,Blow Job,Bubble Butt,Caucasian,Cum on Tits,Deepthroating,High Heels,Outie Pussy,Shaved,Stockings,Tattoos,Titty Fucking, 1080p] ryushare uploaded keep2share

[MyFirstSexTeacher.com / NaughtyAmerica.com] Olivia Austin (01.12.2016) [Big Tits,Blonde,Blow Job,Bubble Butt,Caucasian,Cum on Tits,Deepthroating,High Heels,Outie Pussy,Shaved,Stockings,Tattoos,Titty Fucking, 1080p]

Teen Sex Movies Young Porn Tube Vids 2104 ryushare uploaded keep2share

Teen Sex Movies Young Porn Tube Vids 2104

Hd young videos 3698 ryushare uploaded keep2share

Hd young videos 3698

Riley Reid – Forget Me Not ryushare uploaded keep2share

Riley Reid – Forget Me Not

wow girl outdor besd hd porn vedio dawunlod 2015 ryushare uploaded keep2share

wow girl outdor besd hd porn vedio dawunlod 2015

xxx sex hd video mp4 226455 ryushare uploaded keep2share

xxx sex hd video mp4 226455

Wow girls porn teens 2761 ryushare uploaded keep2share

Wow girls porn teens 2761

Daria – Clinic Sex ryushare uploaded keep2share

Daria – Clinic Sex

download direct short video of intercourse ryushare uploaded keep2share

download direct short video of intercourse

Hd quality – Teen sex video 2401 ryushare uploaded keep2share

Hd quality – Teen sex video 2401

HQ Sex Movies Download 1132 ryushare uploaded keep2share

HQ Sex Movies Download 1132

Watch Teen Sex Videos HD 225256 ryushare uploaded keep2share

Watch Teen Sex Videos HD 225256

Xxx videos 360 video size ryushare uploaded keep2share

Xxx videos 360 video size

Teens in Porno young porn videos and free teen sex 224145 ryushare uploaded keep2share

Teens in Porno young porn videos and free teen sex 224145

Young Virgin Pussy Teen Fuck Tube 5513 ryushare uploaded keep2share

Young Virgin Pussy Teen Fuck Tube 5513

Hot Teen Sex HD videos 1679 ryushare uploaded keep2share

Hot Teen Sex HD videos 1679

Free Porn Videos Xxx Movies Pussy Porn 225269 ryushare uploaded keep2share

Free Porn Videos Xxx Movies Pussy Porn 225269

K Three Teasing Tongues 4 ryushare uploaded keep2share

K Three Teasing Tongues 4

K Craving Lips 4 – CLIP A ryushare uploaded keep2share

K Craving Lips 4 – CLIP A

Sara Luvv, Teddi Rae ryushare uploaded keep2share

Sara Luvv, Teddi Rae

Porn HD Sex HD Teen Sex 1482 ryushare uploaded keep2share

Porn HD Sex HD Teen Sex 1482

HD Porn Videos 225354 ryushare uploaded keep2share

HD Porn Videos 225354

High Definition Movies on HD 4195 ryushare uploaded keep2share

High Definition Movies on HD 4195

Kail – My Favorite Country ryushare uploaded keep2share

Kail – My Favorite Country

Norma – Welcome to fuck her for cash ryushare uploaded keep2share

Norma – Welcome to fuck her for cash

Elly (My Secret Lover) ryushare uploaded keep2share

Elly (My Secret Lover)

Klixen – K Two Teasing Tongues 12 – A ryushare uploaded keep2share

Klixen – K Two Teasing Tongues 12 – A

HD Sex World Videos High Definition Free Porn 4589 ryushare uploaded keep2share

HD Sex World Videos High Definition Free Porn 4589

Report broken links / Post a comment

You must be logged in to post a comment.



General\r\nComplete name : D:HD Teens Download Porn Sex clips movies Tube.xxxTNSMSYl2TNSMSYl2.wmv\r\nFormat : Windows Media\r\nFile size : 595 MiB\r\nDuration : 26mn 25s\r\nOverall bit rate mode : Constant\r\nOverall bit rate : 3 146 Kbps\r\nMaximum Overall bit rate : 3 163 Kbps\r\nPerformer : Royal-cash.com\r\nEncoded date : UTC 2008-10-16 07:37:24.656\r\nCopyright : Royal-cash.com\r\n\r\nVideo\r\nID : 2\r\nFormat : VC-1\r\nFormat profile : [email protected]\r\nCodec ID : WMV3\r\nCodec ID/Info : Windows Media Video 9\r\nCodec ID/Hint : WMV3\r\nDescription of the codec : Windows Media Video 9 - Professional\r\nDuration : 26mn 25s\r\nBit rate mode : Constant\r\nBit rate : 3 072 Kbps\r\nWidth : 720 pixels\r\nHeight : 576 pixels\r\nDisplay aspect ratio : 5:4\r\nFrame rate : 29.970 fps\r\nStandard : PAL\r\nColor space : YUV\r\nChroma subsampling : 4:2:0\r\nBit depth : 8 bits\r\nScan type : Progressive\r\nCompression mode : Lossy\r\nBits/(Pixel*Frame) : 0.247\r\nStream size : 581 MiB (98%)\r\nLanguage : English\r\n\r\nAudio\r\nID : 1\r\nFormat : WMA\r\nFormat version : Version 2\r\nCodec ID : 161\r\nCodec ID/Info : Windows Media Audio\r\nDescription of the codec : Windows Media Audio 9.1 - 64 kbps, 44 kHz, stereo 1-pass CBR\r\nDuration : 26mn 25s\r\nBit rate mode : Constant\r\nBit rate : 64.0 Kbps\r\nChannel(s) : 2 channels\r\nSampling rate : 44.1 KHz\r\nBit depth : 16 bits\r\nStream size : 12.1 MiB (2%)\r\nLanguage : English\r\n\r\n