Young teens tube hot girls free porn video 1223

Watch Teen Sex Videos HD 1226The best Teen sex 1220

Posted in HD Porn, Pornstar, Sex Movies, Teen, Threesome | 21661 Views |


Rate this girl !!!




\r\n\r\nhttp://img56.imagetwist.com/i/05170/ganher4uxo89.jpeg\r\n\r\n Link(914 Mb||24:03||1280*720||WMV)



DOWNLOAD

Keep2share.cc - Uploaded.net - Openload.co - Rapidu.net


http://ryushare.com/womtwvu095om/TNSMNDnr.rar
http://keep2share.cc/file/52efa4871b6d6
http://ul.to/kjp780v9


Premium here:
uploaded.net
keep2share.cc
rapidu.net.cc


Teens related to Young teens tube hot girls free porn video 1223


xxx sex hd video mp4 226455 ryushare uploaded keep2share

xxx sex hd video mp4 226455

ClubSeventeen.com SiteRip – Part 2 ryushare uploaded keep2share

ClubSeventeen.com SiteRip – Part 2

Teen Sex Movies Young Porn Tube Vids 224610 ryushare uploaded keep2share

Teen Sex Movies Young Porn Tube Vids 224610

Tube Young Sex 224974 ryushare uploaded keep2share

Tube Young Sex 224974

8 Teen XXX – Teen Sex 224449 ryushare uploaded keep2share

8 Teen XXX – Teen Sex 224449

High Definition Movies on HD Teen Porn XXX Tube 2211 ryushare uploaded keep2share

High Definition Movies on HD Teen Porn XXX Tube 2211

hq Pron movies downlod ryushare uploaded keep2share

hq Pron movies downlod

Fresh Teen Videos 223852 ryushare uploaded keep2share

Fresh Teen Videos 223852

xxx movies hd for mobile com ryushare uploaded keep2share

xxx movies hd for mobile com

8 Teen XXX – Teen Sex 3987 ryushare uploaded keep2share

8 Teen XXX – Teen Sex 3987

Kiki Vidis ryushare uploaded keep2share

Kiki Vidis

HD Porn Teen Sex Videos 2786 ryushare uploaded keep2share

HD Porn Teen Sex Videos 2786

Watch Teen Sex Videos HD 4949 ryushare uploaded keep2share

Watch Teen Sex Videos HD 4949

Brandy Naughty – First Time Auditions ryushare uploaded keep2share

Brandy Naughty – First Time Auditions

Fresh Teen Videos 3763 ryushare uploaded keep2share

Fresh Teen Videos 3763

xxx bf movies hd com 226686 ryushare uploaded keep2share

xxx bf movies hd com 226686

Young legal porn clips 4754 ryushare uploaded keep2share

Young legal porn clips 4754

[POVD.com] Kendall Kayden – Shower Show ryushare uploaded keep2share

[POVD.com] Kendall Kayden – Shower Show

sexual sex xxx 226605 ryushare uploaded keep2share

sexual sex xxx 226605

www hd video xxx old 226453 ryushare uploaded keep2share

www hd video xxx old 226453

Watch Teen Sex Videos HD 224129 ryushare uploaded keep2share

Watch Teen Sex Videos HD 224129

sweet teen busty buffy big babees 1080p anal xxx video 226577 ryushare uploaded keep2share

sweet teen busty buffy big babees 1080p anal xxx video 226577

Nude Teens fucking hard 3040 ryushare uploaded keep2share

Nude Teens fucking hard 3040

Good Teen Tube Sexy Young Naked Girls Movies 1380 ryushare uploaded keep2share

Good Teen Tube Sexy Young Naked Girls Movies 1380

www defloration hqvideo com 226313 ryushare uploaded keep2share

www defloration hqvideo com 226313

free high resolution porn movies 226717 ryushare uploaded keep2share

free high resolution porn movies 226717

HD Porn Videos 1476 ryushare uploaded keep2share

HD Porn Videos 1476

Hardcore sex videos in the high definition quality 224598 ryushare uploaded keep2share

Hardcore sex videos in the high definition quality 224598

Porn HQ Movei free downlode ryushare uploaded keep2share

Porn HQ Movei free downlode

Jassie Gold – Take Your Tisme / all sex ryushare uploaded keep2share

Jassie Gold – Take Your Tisme / all sex

www xxx hb movi 226762 ryushare uploaded keep2share

www xxx hb movi 226762

very hot pron 226721 ryushare uploaded keep2share

very hot pron 226721

Two Teasing Tongues 10 – A ryushare uploaded keep2share

Two Teasing Tongues 10 – A

Wow Girls Porn Clips download 224663 ryushare uploaded keep2share

Wow Girls Porn Clips download 224663

Sweet Teen Porn – Young Porn Videos 224227 ryushare uploaded keep2share

Sweet Teen Porn – Young Porn Videos 224227

Report broken links / Post a comment

You must be logged in to post a comment.



General\r\nComplete name : D:HD TeenMania Porn Sex videosxxxTNSMNDnrTNSMNDnr.wmv\r\nFormat : Windows Media\r\nFile size : 914 MiB\r\nDuration : 24mn 3s\r\nOverall bit rate mode : Constant\r\nOverall bit rate : 5 312 Kbps\r\nMaximum Overall bit rate : 6 321 Kbps\r\nPerformer : Royal-Cash.com\r\nEncoded date : UTC 2014-01-24 10:21:15.696\r\nCopyright : Royal-Cash.com\r\n\r\nVideo\r\nID : 2\r\nFormat : VC-1\r\nFormat profile : [email protected]\r\nCodec ID : WMV3\r\nCodec ID/Info : Windows Media Video 9\r\nCodec ID/Hint : WMV3\r\nDescription of the codec : Windows Media Video 9 - Professional\r\nDuration : 24mn 3s\r\nBit rate mode : Constant\r\nBit rate : 6 144 Kbps\r\nWidth : 1 280 pixels\r\nHeight : 720 pixels\r\nDisplay aspect ratio : 16:9\r\nFrame rate : 25.000 fps\r\nColor space : YUV\r\nChroma subsampling : 4:2:0\r\nBit depth : 8 bits\r\nScan type : Progressive\r\nCompression mode : Lossy\r\nBits/(Pixel*Frame) : 0.267\r\nStream size : 1.03 GiB\r\nLanguage : Russian\r\nNumberOfFrames : 36074\r\n\r\nAudio\r\nID : 1\r\nFormat : WMA\r\nFormat version : Version 2\r\nCodec ID : 161\r\nCodec ID/Info : Windows Media Audio\r\nDescription of the codec : Windows Media Audio 9.2 - 128 kbps, 44 kHz, stereo 1-pass CBR\r\nDuration : 24mn 3s\r\nBit rate mode : Constant\r\nBit rate : 128 Kbps\r\nChannel(s) : 2 channels\r\nSampling rate : 44.1 KHz\r\nBit depth : 16 bits\r\nStream size : 22.0 MiB (2%)\r\nLanguage : Russian\r\nNumberOfFrames : 3886\r\n\r\n