Young teens tube hot girls free porn video 1296

Hd quality - Teen sex video 1299Hot Teen Sex HD videos 1292

Posted in Amateur, HD Porn, Sex Movies, Teen | 45630 Views |


Rate this girl !!!




\r\n\r\nhttp://img101.imagetwist.com/i/05188/m45xlgxhmw0b.jpeg\r\n\r\n Link(648 Mb||17:27||1280*720||WMV) \r\n\r\nFull Siterip Part1\r\n\r\nFull Siterip Part2\r\n\r\nFull Siterip Part3



DOWNLOAD

Keep2share.cc - Uploaded.net - Openload.co - Rapidu.net


http://ryushare.com/9jgz4d5feg8u/CNSTCNny.rar
http://keep2share.cc/file/52efbcebece8f
http://ul.to/jh6loaiv


Premium here:
uploaded.net
keep2share.cc
rapidu.net.cc

Teens related to Young teens tube hot girls free porn video 1296


Teen Porn XXX Tube 225930 ryushare uploaded keep2share

Teen Porn XXX Tube 225930

Young legal porn clips 3020 ryushare uploaded keep2share

Young legal porn clips 3020

Wow porn hd downloads 224283 ryushare uploaded keep2share

Wow porn hd downloads 224283

Girls do porn in HD 225969 ryushare uploaded keep2share

Girls do porn in HD 225969

Free Porn Videos Xxx Movies Pussy Porn 1496 ryushare uploaded keep2share

Free Porn Videos Xxx Movies Pussy Porn 1496

Hot Teen Sex 1274 ryushare uploaded keep2share

Hot Teen Sex 1274

www foto 8 teenxxx 226674 ryushare uploaded keep2share

www foto 8 teenxxx 226674

Good Teen Tube Sexy Young Naked Girls Movies 2370 ryushare uploaded keep2share

Good Teen Tube Sexy Young Naked Girls Movies 2370

Girls sex art hd teens videos 5327 ryushare uploaded keep2share

Girls sex art hd teens videos 5327

Hardcore Sex Hub 225185 ryushare uploaded keep2share

Hardcore Sex Hub 225185

yess xxx mkv 226512 ryushare uploaded keep2share

yess xxx mkv 226512

Girls do porn in HD 225551 ryushare uploaded keep2share

Girls do porn in HD 225551

Amy – Pick Up Fuck With Blonde In Hot Lingerie ryushare uploaded keep2share

Amy – Pick Up Fuck With Blonde In Hot Lingerie

Young Virgin Pussy Teen Fuck Tube 4173 ryushare uploaded keep2share

Young Virgin Pussy Teen Fuck Tube 4173

Gina Gerson – A Dream Of You ryushare uploaded keep2share

Gina Gerson – A Dream Of You

Teen porn movies 3835 ryushare uploaded keep2share

Teen porn movies 3835

J. Joanna – Slam It Harder ryushare uploaded keep2share

J. Joanna – Slam It Harder

xxxvidohd donlwd com ryushare uploaded keep2share

xxxvidohd donlwd com

audio sex tape in low mb 226389 ryushare uploaded keep2share

audio sex tape in low mb 226389

High Definition Movies on HD 224619 ryushare uploaded keep2share

High Definition Movies on HD 224619

Teen Tits Tube, Young Girls Porn Videos 6209 ryushare uploaded keep2share

Teen Tits Tube, Young Girls Porn Videos 6209

Hot Teen Sex HD videos 2425 ryushare uploaded keep2share

Hot Teen Sex HD videos 2425

Porno movies young teens lesbian 5061 ryushare uploaded keep2share

Porno movies young teens lesbian 5061

hd porn new breast 226190 ryushare uploaded keep2share

hd porn new breast 226190

Porn HD Sex HD Teen Sex 224013 ryushare uploaded keep2share

Porn HD Sex HD Teen Sex 224013

Young legal porn clips 3026 ryushare uploaded keep2share

Young legal porn clips 3026

Teen Sex Movies Young Porn Tube Vids 5179 ryushare uploaded keep2share

Teen Sex Movies Young Porn Tube Vids 5179

porn sex full hd high quality free downloding 226345 ryushare uploaded keep2share

porn sex full hd high quality free downloding 226345

download hd sex vids for pc 226447 ryushare uploaded keep2share

download hd sex vids for pc 226447

K Three Teasing Tongues 3 ryushare uploaded keep2share

K Three Teasing Tongues 3

Real Bushy Beavers 18 – Timea Bella ryushare uploaded keep2share

Real Bushy Beavers 18 – Timea Bella

18OnlyGirls.com / WowFandom.com Luiza (Getting Analyzed) ryushare uploaded keep2share

18OnlyGirls.com / WowFandom.com Luiza (Getting Analyzed)

Daria – Clinic Sex ryushare uploaded keep2share

Daria – Clinic Sex

iglish porn sexi 226443 ryushare uploaded keep2share

iglish porn sexi 226443

Teen Sex Videos Tube Movies 225137 ryushare uploaded keep2share

Teen Sex Videos Tube Movies 225137

Report broken links / Post a comment

You must be logged in to post a comment.



General\r\nComplete name : D:HD TeenMania Porn Sex videos.xxxCNSTCNnyCNSTCNny.wmv\r\nFormat : Windows Media\r\nFile size : 372 MiB\r\nDuration : 24mn 37s\r\nOverall bit rate : 2 112 Kbps\r\nMaximum Overall bit rate : 2 128 Kbps\r\nEncoded date : UTC 2010-02-17 01:42:50.000\r\n\r\nVideo\r\nID : 1\r\nFormat : VC-1\r\nFormat profile : Main\r\nCodec ID : WMV3\r\nCodec ID/Info : Windows Media Video 9\r\nCodec ID/Hint : WMV3\r\nDescription of the codec : Windows Media Video 317386552 - 2-pass CBR\r\nDuration : 24mn 37s\r\nBit rate : 2 000 Kbps\r\nWidth : 720 pixels\r\nHeight : 576 pixels\r\nDisplay aspect ratio : 5:4\r\nFrame rate : 25.000 fps\r\nStandard : PAL\r\nColor space : YUV\r\nChroma subsampling : 4:2:0\r\nBit depth : 8 bits\r\nScan type : Progressive\r\nCompression mode : Lossy\r\nBits/(Pixel*Frame) : 0.193\r\nStream size : 352 MiB (95%)\r\n\r\nAudio\r\nID : 2\r\nFormat : WMA\r\nFormat version : Version 2\r\nCodec ID : 161\r\nCodec ID/Info : Windows Media Audio\r\nDescription of the codec : Windows Media Audio 9 - 317386552 kbps, 317386552 kHz, stereo CBR\r\nDuration : 24mn 37s\r\nBit rate : 128 Kbps\r\nChannel(s) : 2 channels\r\nSampling rate : 44.1 KHz\r\nBit depth : 16 bits\r\nStream size : 22.5 MiB (6%)\r\n\r\n