Young teens tube hot girls free porn video 1947

Young teens tube hot girls free porn video 1951Teen Sex Videos Tube Movies 1942

Posted in Amateur, HD Porn, Sex Movies, Teen | 12530 Views |


Rate this girl !!!




\r\n\r\nhttp://img54.imagetwist.com/i/04058/4orlg7eayixy.jpg\r\n\r\n Link(949 Mb||25:22||1280*720||WMV)



DOWNLOAD

Keep2share.cc - Uploaded.net - Openload.co - Rapidu.net


http://ul.to/crqkblkt
http://ryushare.com/s9k3xj3wk5fb/XNGLSTNSg2.rar
http://keep2share.cc/file/a952dbb32d8db


Premium here:
uploaded.net
keep2share.cc
rapidu.net.cc


Teens related to Young teens tube hot girls free porn video 1947


Porn HD Sex HD Teen Sex 224487 ryushare uploaded keep2share

Porn HD Sex HD Teen Sex 224487

College Teen Sex 2160 ryushare uploaded keep2share

College Teen Sex 2160

Sweet Teen Porn – Young Porn Videos 225837 ryushare uploaded keep2share

Sweet Teen Porn – Young Porn Videos 225837

Wow porn hd downloads 225727 ryushare uploaded keep2share

Wow porn hd downloads 225727

Linda S – I’Am Your Woman ryushare uploaded keep2share

Linda S – I’Am Your Woman

Hd quality – Teen sex video 4257 ryushare uploaded keep2share

Hd quality – Teen sex video 4257

Www gri xxx com 226361 ryushare uploaded keep2share

Www gri xxx com 226361

Hot download sex girls movies 224915 ryushare uploaded keep2share

Hot download sex girls movies 224915

Her Sweet Hand – Beatrice ryushare uploaded keep2share

Her Sweet Hand – Beatrice

Adult Hardcore XXX Sex Videos 4120 ryushare uploaded keep2share

Adult Hardcore XXX Sex Videos 4120

Hot Teen Sex HD videos 224673 ryushare uploaded keep2share

Hot Teen Sex HD videos 224673

Young Sex Movies 225730 ryushare uploaded keep2share

Young Sex Movies 225730

Teena Dolly – Teena Lipoldino 140 Movies ryushare uploaded keep2share

Teena Dolly – Teena Lipoldino 140 Movies

Watch Teen Sex Videos HD 4135 ryushare uploaded keep2share

Watch Teen Sex Videos HD 4135

HD Teens Sex Tube Videos XxX 223808 ryushare uploaded keep2share

HD Teens Sex Tube Videos XxX 223808

www hdvideo9 in porn ryushare uploaded keep2share

www hdvideo9 in porn

Movies Young legal porn 225865 ryushare uploaded keep2share

Movies Young legal porn 225865

Big Birthday Party Fuck in Ibiza ryushare uploaded keep2share

Big Birthday Party Fuck in Ibiza

Teen Sex Movies 4310 ryushare uploaded keep2share

Teen Sex Movies 4310

Hd young videos 4525 ryushare uploaded keep2share

Hd young videos 4525

HQ hd full xxx video free download 226615 ryushare uploaded keep2share

HQ hd full xxx video free download 226615

hard fuck hd image download 226631 ryushare uploaded keep2share

hard fuck hd image download 226631

HD Porn Video 1235 ryushare uploaded keep2share

HD Porn Video 1235

High Definition Movies on HD 1766 ryushare uploaded keep2share

High Definition Movies on HD 1766

Young Sex Movies 3968 ryushare uploaded keep2share

Young Sex Movies 3968

Young Virgin Pussy Teen Fuck Tube 3398 ryushare uploaded keep2share

Young Virgin Pussy Teen Fuck Tube 3398

The best Teen sex 224742 ryushare uploaded keep2share

The best Teen sex 224742

Sweet Teen Porn – Young Porn Videos 224912 ryushare uploaded keep2share

Sweet Teen Porn – Young Porn Videos 224912

Teen Sex Movies 225206 ryushare uploaded keep2share

Teen Sex Movies 225206

Klara, Paloma – Let’s Come Together ryushare uploaded keep2share

Klara, Paloma – Let’s Come Together

video porn massage porn ryushare uploaded keep2share

video porn massage porn

Good Teen Tube Sexy Young Naked Girls Movies 224639 ryushare uploaded keep2share

Good Teen Tube Sexy Young Naked Girls Movies 224639

xxx hq sexy vedioes 226528 ryushare uploaded keep2share

xxx hq sexy vedioes 226528

xxx videoss of small mb dowwnload ryushare uploaded keep2share

xxx videoss of small mb dowwnload

x videos mobi hd ryushare uploaded keep2share

x videos mobi hd

Report broken links / Post a comment

You must be logged in to post a comment.



General\r\nComplete name : D:HD Teens Download Porn Sex clips movies Tube.xxxXNGLSTNSg2XNGLSTNSg2.wmv\r\nFormat : Windows Media\r\nFile size : 949 MiB\r\nDuration : 25mn 22s\r\nOverall bit rate mode : Constant\r\nOverall bit rate : 5 227 Kbps\r\nMaximum Overall bit rate : 5 290 Kbps\r\nPerformer : Royal-Cash.com\r\nEncoded date : UTC 2013-08-08 21:55:18.940\r\nCopyright : Royal-Cash.com\r\n\r\nVideo\r\nID : 2\r\nFormat : VC-1\r\nFormat profile : [email protected]\r\nCodec ID : WMV3\r\nCodec ID/Info : Windows Media Video 9\r\nCodec ID/Hint : WMV3\r\nDescription of the codec : Windows Media Video 9 - Professional\r\nDuration : 25mn 22s\r\nBit rate mode : Constant\r\nBit rate : 5 120 Kbps\r\nWidth : 1 280 pixels\r\nHeight : 720 pixels\r\nDisplay aspect ratio : 16:9\r\nFrame rate : 25.000 fps\r\nColor space : YUV\r\nChroma subsampling : 4:2:0\r\nBit depth : 8 bits\r\nScan type : Progressive\r\nCompression mode : Lossy\r\nBits/(Pixel*Frame) : 0.222\r\nStream size : 929 MiB (98%)\r\nLanguage : Russian\r\nNumberOfFrames : 38046\r\n\r\nAudio\r\nID : 1\r\nFormat : WMA\r\nFormat version : Version 2\r\nCodec ID : 161\r\nCodec ID/Info : Windows Media Audio\r\nDescription of the codec : Windows Media Audio 9.2 - 128 kbps, 44 kHz, stereo 1-pass CBR\r\nDuration : 25mn 22s\r\nBit rate mode : Constant\r\nBit rate : 128 Kbps\r\nChannel(s) : 2 channels\r\nSampling rate : 44.1 KHz\r\nBit depth : 16 bits\r\nStream size : 23.2 MiB (2%)\r\nLanguage : Russian\r\nNumberOfFrames : 4101\r\n\r\n