Young teens tube hot girls free porn video 1951

Teen porn movies 1954Young teens tube hot girls free porn video 1947

Posted in Amateur, HD Porn, Sex Movies, Teen | 10285 Views |


Rate this girl !!!




\r\n\r\nhttp://img101.imagetwist.com/i/05110/igeqtq4f6cx3.jpeg\r\n\r\n Link(1.62 Gb||26:38||1920*1080||MP4)



DOWNLOAD

Keep2share.cc - Uploaded.net - Openload.co - Rapidu.net


http://keep2share.cc/file/be968db53414e
http://ul.to/8soj313z
http://ryushare.com/fnk838sh4gal/SNGRMrn.rar


Premium here:
uploaded.net
keep2share.cc
rapidu.net.cc


Teens related to Young teens tube hot girls free porn video 1951


TrickyMasseur.com Aline ryushare uploaded keep2share

TrickyMasseur.com Aline

free heigh definition porn movies download 226263 ryushare uploaded keep2share

free heigh definition porn movies download 226263

Watch Teen Sex Videos HD 2205 ryushare uploaded keep2share

Watch Teen Sex Videos HD 2205

sexxxxxxx mp 3 xxxhd 226194 ryushare uploaded keep2share

sexxxxxxx mp 3 xxxhd 226194

Sweet Teen Porn – Young Porn Videos 224820 ryushare uploaded keep2share

Sweet Teen Porn – Young Porn Videos 224820

sexy video download hd in low mb 226202 ryushare uploaded keep2share

sexy video download hd in low mb 226202

Teen Porn XXX Tube 3723 ryushare uploaded keep2share

Teen Porn XXX Tube 3723

kHz xxx sex ryushare uploaded keep2share

kHz xxx sex

bf 1080p xxxx sex xxx hd bf 226698 ryushare uploaded keep2share

bf 1080p xxxx sex xxx hd bf 226698

Young Sex Movies 225490 ryushare uploaded keep2share

Young Sex Movies 225490

Teen sex xxx hd 4489 ryushare uploaded keep2share

Teen sex xxx hd 4489

Good Teen Tube Sexy Young Naked Girls Movies 1383 ryushare uploaded keep2share

Good Teen Tube Sexy Young Naked Girls Movies 1383

Teen Porn XXX Tube 225056 ryushare uploaded keep2share

Teen Porn XXX Tube 225056

Just Clara ryushare uploaded keep2share

Just Clara

Teen Sex Movies Young Porn Tube Vids 224457 ryushare uploaded keep2share

Teen Sex Movies Young Porn Tube Vids 224457

www pussyHD picture ryushare uploaded keep2share

www pussyHD picture

HD Teens Sex Tube Videos XxX 2706 ryushare uploaded keep2share

HD Teens Sex Tube Videos XxX 2706

Hardcore sex videos in the high definition quality 5010 ryushare uploaded keep2share

Hardcore sex videos in the high definition quality 5010

18 years girl xxx sex videos) 2758 ryushare uploaded keep2share

18 years girl xxx sex videos) 2758

xvideohqdownlod 226407 ryushare uploaded keep2share

xvideohqdownlod 226407

Teenage Fuck Clips 225869 ryushare uploaded keep2share

Teenage Fuck Clips 225869

www hdbrazzers vedios download ryushare uploaded keep2share

www hdbrazzers vedios download

bb xxx hd vdeo free ryushare uploaded keep2share

bb xxx hd vdeo free

Creampie-Angels.com Licie ryushare uploaded keep2share

Creampie-Angels.com Licie

Veronika – Awesome sex with hot teeny ryushare uploaded keep2share

Veronika – Awesome sex with hot teeny

Jenny Glam – Who’s My Good Girl? ryushare uploaded keep2share

Jenny Glam – Who’s My Good Girl?

8teen xxx pcHD com ryushare uploaded keep2share

8teen xxx pcHD com

Hot Teen Sex HD videos 2905 ryushare uploaded keep2share

Hot Teen Sex HD videos 2905

Hot download sex girls movies 225819 ryushare uploaded keep2share

Hot download sex girls movies 225819

Hd quality – Teen sex video 5307 ryushare uploaded keep2share

Hd quality – Teen sex video 5307

www free downloade hd world sex com 226164 ryushare uploaded keep2share

www free downloade hd world sex com 226164

pron pictures fucked 226288 ryushare uploaded keep2share

pron pictures fucked 226288

Ivana Sugar – Lovely arches ryushare uploaded keep2share

Ivana Sugar – Lovely arches

Young teens tube hot girls free porn video 1296 ryushare uploaded keep2share

Young teens tube hot girls free porn video 1296

Teen Sex Porn Videos Free Nude Teens 3671 ryushare uploaded keep2share

Teen Sex Porn Videos Free Nude Teens 3671

Report broken links / Post a comment

You must be logged in to post a comment.



General\r\nComplete name : D:HD Teens Download Porn Sex clips movies Tube.xxxSNGRMrnSNGRMrn.mp4\r\nFormat : MPEG-4\r\nFormat profile : Adobe Flash\r\nCodec ID : f4v \r\nFile size : 1.62 GiB\r\nDuration : 26mn 38s\r\nOverall bit rate : 8 722 Kbps\r\nEncoded date : UTC 2013-10-01 17:23:47\r\nTagged date : UTC 2013-10-02 17:41:14\r\n©TIM : 00:00:00:00\r\n©TSC : 30000\r\n©TSZ : 1001\r\n\r\nVideo\r\nID : 1\r\nFormat : AVC\r\nFormat/Info : Advanced Video Codec\r\nFormat profile : [email protected]\r\nFormat settings, CABAC : Yes\r\nFormat settings, ReFrames : 3 frames\r\nFormat settings, GOP : M=3, N=33\r\nCodec ID : avc1\r\nCodec ID/Info : Advanced Video Coding\r\nDuration : 26mn 38s\r\nBit rate : 8 649 Kbps\r\nWidth : 1 920 pixels\r\nHeight : 1 080 pixels\r\nDisplay aspect ratio : 16:9\r\nFrame rate mode : Variable\r\nFrame rate : 29.970 fps\r\nMinimum frame rate : 29.960 fps\r\nMaximum frame rate : 29.980 fps\r\nStandard : NTSC\r\nColor space : YUV\r\nChroma subsampling : 4:2:0\r\nBit depth : 8 bits\r\nScan type : Progressive\r\nBits/(Pixel*Frame) : 0.139\r\nStream size : 1.61 GiB (99%)\r\nTitle : MainConcept\r\nLanguage : English\r\nEncoded date : UTC 2013-10-01 17:23:47\r\nTagged date : UTC 2013-10-01 17:23:47\r\nColor primaries : BT.709\r\nTransfer characteristics : BT.709\r\nMatrix coefficients : BT.709\r\nmdhd_Duration : 1598263\r\n\r\nAudio\r\nID : 2\r\nFormat : AAC\r\nFormat/Info : Advanced Audio Codec\r\nFormat profile : LC\r\nCodec ID : 40\r\nDuration : 26mn 38s\r\nSource duration : 26mn 38s\r\nBit rate mode : Constant\r\nBit rate : 64.0 Kbps\r\nChannel(s) : 2 channels\r\nChannel positions : Front: L R\r\nSampling rate : 44.1 KHz\r\nCompression mode : Lossy\r\nStream size : 12.2 MiB (1%)\r\nSource stream size : 12.2 MiB (1%)\r\nLanguage : English\r\nEncoded date : UTC 2013-10-01 17:23:47\r\nTagged date : UTC 2013-10-01 17:23:47\r\n\r\n