Young Virgin Pussy Teen Fuck Tube 2962

Hot hd teen sex videos 2966Teenies Videos - Teen Porn, Teen Sex, XXX Free Videos 2957

Posted in Amateur, HD Porn, Sex Movies, Teen | 16896 Views |


Rate this girl !!!




\r\n2.jpg\r\n\r\nLink(414 Mb||26:04||1280*720||MP4)



DOWNLOAD

Keep2share.cc - Uploaded.net - Openload.co - Rapidu.net


http://k2s.cc/file/02d8039462c46/DSPNVRlc.mp4
http://ryushare.com/h2zxiworwn5b/DSPNVRlc.mp4
http://ul.to/vxja2l7p/DSPNVRlc.mp4


Premium here:
uploaded.net
keep2share.cc
rapidu.net.cc


Teens related to Young Virgin Pussy Teen Fuck Tube 2962


Sandy Sweet – To Have And To Fuck ryushare uploaded keep2share

Sandy Sweet – To Have And To Fuck

Teen xxx sex hd 224286 ryushare uploaded keep2share

Teen xxx sex hd 224286

xxx hd smoll garls video com ryushare uploaded keep2share

xxx hd smoll garls video com

HD1080 porno nude act movie 226709 ryushare uploaded keep2share

HD1080 porno nude act movie 226709

HD SEX DOWNLOAD 100MB 226490 ryushare uploaded keep2share

HD SEX DOWNLOAD 100MB 226490

Alexis Brill – Waltz With Me – Autumn ryushare uploaded keep2share

Alexis Brill – Waltz With Me – Autumn

Hd young videos 3854 ryushare uploaded keep2share

Hd young videos 3854

Teen Sex Videos Tube Movies 2690 ryushare uploaded keep2share

Teen Sex Videos Tube Movies 2690

Babes Giselle Leon 1080p ryushare uploaded keep2share

Babes Giselle Leon 1080p

www hdvideo9 in porn ryushare uploaded keep2share

www hdvideo9 in porn

HD Sex World Videos High Definition Free Porn 1501 ryushare uploaded keep2share

HD Sex World Videos High Definition Free Porn 1501

HD Teen Sex Tube 225339 ryushare uploaded keep2share

HD Teen Sex Tube 225339

Teen porn movies 225314 ryushare uploaded keep2share

Teen porn movies 225314

Teen Sex Movies Young Porn Tube Vids 224457 ryushare uploaded keep2share

Teen Sex Movies Young Porn Tube Vids 224457

Wow Girls Porn Clips download 225841 ryushare uploaded keep2share

Wow Girls Porn Clips download 225841

[PublicAgent.com] Nicole Love – Perfect Boobs Flashed in Public ryushare uploaded keep2share

[PublicAgent.com] Nicole Love – Perfect Boobs Flashed in Public

www hd video xxx old 226453 ryushare uploaded keep2share

www hd video xxx old 226453

Teen porn movies 3659 ryushare uploaded keep2share

Teen porn movies 3659

Teen 18 Porn XXX Clips Naked 4357 ryushare uploaded keep2share

Teen 18 Porn XXX Clips Naked 4357

College Teen Sex 5112 ryushare uploaded keep2share

College Teen Sex 5112

College Teen Sex 1987 ryushare uploaded keep2share

College Teen Sex 1987

18OnlyGirls.com – Violette ryushare uploaded keep2share

18OnlyGirls.com – Violette

Teens Love huge cooks 1166 ryushare uploaded keep2share

Teens Love huge cooks 1166

teensex mp4 hd download 226542 ryushare uploaded keep2share

teensex mp4 hd download 226542

Teenage Fuck Clips 225321 ryushare uploaded keep2share

Teenage Fuck Clips 225321

http is gd real xgrls hot video 226544 ryushare uploaded keep2share

http is gd real xgrls hot video 226544

Watch Teen Sex Videos HD 4949 ryushare uploaded keep2share

Watch Teen Sex Videos HD 4949

Teens in Porno young porn videos and free teen sex 224477 ryushare uploaded keep2share

Teens in Porno young porn videos and free teen sex 224477

College Teen Sex 2994 ryushare uploaded keep2share

College Teen Sex 2994

TrickyMasseur.com January ryushare uploaded keep2share

TrickyMasseur.com January

Viola Paige (Toying Around / 10.12.13) Nubiles.net ryushare uploaded keep2share

Viola Paige (Toying Around / 10.12.13) Nubiles.net

College Teen Sex 224613 ryushare uploaded keep2share

College Teen Sex 224613

ww poran xxx hd com 226538 ryushare uploaded keep2share

ww poran xxx hd com 226538

Teenage Fuck Clips 2332 ryushare uploaded keep2share

Teenage Fuck Clips 2332

Hot Tina, Kayla Green – Lessons in Lust ryushare uploaded keep2share

Hot Tina, Kayla Green – Lessons in Lust

Report broken links / Post a comment

You must be logged in to post a comment.



General\r\nComplete name : D:HD Porn Teens Sex movies tube online downloadDSPNVRlc.mp4\r\nFormat : MPEG-4\r\nFormat profile : Base Media\r\nCodec ID : isom\r\nFile size : 414 MiB\r\nDuration : 26mn 4s\r\nOverall bit rate : 2 218 Kbps\r\nWriting application : Lavf55.22.103\r\n\r\nVideo\r\nID : 1\r\nFormat : AVC\r\nFormat/Info : Advanced Video Codec\r\nFormat profile : [email protected]\r\nFormat settings, CABAC : Yes\r\nFormat settings, ReFrames : 5 frames\r\nCodec ID : avc1\r\nCodec ID/Info : Advanced Video Coding\r\nDuration : 26mn 4s\r\nBit rate : 2 081 Kbps\r\nWidth : 1 280 pixels\r\nHeight : 720 pixels\r\nDisplay aspect ratio : 16:9\r\nFrame rate mode : Constant\r\nFrame rate : 29.970 fps\r\nColor space : YUV\r\nChroma subsampling : 4:2:0\r\nBit depth : 8 bits\r\nScan type : Progressive\r\nBits/(Pixel*Frame) : 0.075\r\nStream size : 388 MiB (94%)\r\nWriting library : x264 core 140 r2377 1ca7bb9\r\nEncoding settings : cabac=1 / ref=5 / deblock=1:0:0 / analyse=0x3:0x113 / me=umh / subme=8 / psy=1 / psy_rd=1.00:0.00 / mixed_ref=1 / me_range=16 / chroma_me=1 / trellis=1 / 8x8dct=1 / cqm=0 / deadzone=21,11 / fast_pskip=1 / chroma_qp_offset=2 / threads=12 / lookahead_threads=2 / sliced_threads=0 / nr=0 / decimate=1 / interlaced=0 / bluray_compat=0 / constrained_intra=0 / bframes=3 / b_pyramid=2 / b_adapt=2 / b_bias=0 / direct=3 / weightb=1 / open_gop=0 / weightp=2 / keyint=150 / keyint_min=15 / scenecut=40 / intra_refresh=0 / rc_lookahead=50 / rc=crf / mbtree=1 / crf=20.0 / qcomp=0.60 / qpmin=0 / qpmax=69 / qpstep=4 / vbv_maxrate=6000 / vbv_bufsize=6000 / crf_max=0.0 / nal_hrd=none / filler=0 / ip_ratio=1.40 / aq=1:1.00\r\n\r\nAudio\r\nID : 2\r\nFormat : AAC\r\nFormat/Info : Advanced Audio Codec\r\nFormat profile : LC\r\nCodec ID : 40\r\nDuration : 26mn 4s\r\nDuration_LastFrame : -10ms\r\nBit rate mode : Constant\r\nBit rate : 128 Kbps\r\nChannel(s) : 2 channels\r\nChannel positions : Front: L R\r\nSampling rate : 44.1 KHz\r\nCompression mode : Lossy\r\nStream size : 23.9 MiB (6%)\r\n\r\n