Young XXX Tube Videos 2002

Anjelica - One Love… One LifeHD Sex World Videos High Definition Free Porn 1997

Posted in HD Porn, Pornstar, Sex Movies, Teen, Threesome | 29403 Views |


Rate this girl !!!




\r\n\r\n\r\n\r\n\r\n Link(0.97 Gb||24:34||1280*720||WMV) \r\n\r\n 



DOWNLOAD

Keep2share.cc - Uploaded.net - Openload.co - Rapidu.net


http://uploaded.net/file/j5d3ksmy/FSBGSMrt.rar
http://k2s.cc/file/9b08b69fb284e/FSBGSMrt.rar
http://ryushare.com/xzs051h5z7am/FSBGSMrt.rar



Premium here:
uploaded.net
keep2share.cc
rapidu.net.cc


Teens related to Young XXX Tube Videos 2002


hd sexy porn star video ryushare uploaded keep2share

hd sexy porn star video

yunga grls porn sex com ryushare uploaded keep2share

yunga grls porn sex com

yang garls boy xxx ryushare uploaded keep2share

yang garls boy xxx

saxy english xxx hd download ryushare uploaded keep2share

saxy english xxx hd download

HD Sex World Videos High Definition Free Porn 224277 ryushare uploaded keep2share

HD Sex World Videos High Definition Free Porn 224277

Welcome To The Wild / Beata ryushare uploaded keep2share

Welcome To The Wild / Beata

Young 720p hd porn 4567 ryushare uploaded keep2share

Young 720p hd porn 4567

Teen xxx sex hd 223813 ryushare uploaded keep2share

Teen xxx sex hd 223813

Good Teen Tube Sexy Young Naked Girls Movies 223843 ryushare uploaded keep2share

Good Teen Tube Sexy Young Naked Girls Movies 223843

College Teen Sex 1992 ryushare uploaded keep2share

College Teen Sex 1992

kHz xxx sex ryushare uploaded keep2share

kHz xxx sex

High Definition Movies on HD 1683 ryushare uploaded keep2share

High Definition Movies on HD 1683

Porn teen hd downloads 224721 ryushare uploaded keep2share

Porn teen hd downloads 224721

foll hd xxx 2016bobes mailk 226591 ryushare uploaded keep2share

foll hd xxx 2016bobes mailk 226591

Wow girls hd porn teens 225278 ryushare uploaded keep2share

Wow girls hd porn teens 225278

Wow porn tube movies 225953 ryushare uploaded keep2share

Wow porn tube movies 225953

Teen Tits Tube, Young Girls Porn Videos 3993 ryushare uploaded keep2share

Teen Tits Tube, Young Girls Porn Videos 3993

Klara, Paloma – Let’s Come Together ryushare uploaded keep2share

Klara, Paloma – Let’s Come Together

Kiara Lord – Offline Erotica ryushare uploaded keep2share

Kiara Lord – Offline Erotica

Hardcore Sex Hub 224876 ryushare uploaded keep2share

Hardcore Sex Hub 224876

Teens 1080p hd porn 4179 ryushare uploaded keep2share

Teens 1080p hd porn 4179

HD Porn Videos 4503 ryushare uploaded keep2share

HD Porn Videos 4503

Teenies Videos – Teen Porn, Teen Sex, XXX Free Videos 4123 ryushare uploaded keep2share

Teenies Videos – Teen Porn, Teen Sex, XXX Free Videos 4123

Alexis Brill – Waltz With Me – Autumn ryushare uploaded keep2share

Alexis Brill – Waltz With Me – Autumn

hardcore sex xxx 226030 ryushare uploaded keep2share

hardcore sex xxx 226030

WowGirls Livia Grace C Getting Off Without A Cock ryushare uploaded keep2share

WowGirls Livia Grace C Getting Off Without A Cock

xxxnx videos hd 18 con 226659 ryushare uploaded keep2share

xxxnx videos hd 18 con 226659

Teen Sex Videos Tube Movies 224998 ryushare uploaded keep2share

Teen Sex Videos Tube Movies 224998

[LegalPorno.com] Rebecca Volpetti (Rebecca Volpetti goes hardcore: 3on1 anal & DP SZ1298) [2016 г., Gonzo, Gangbang, Anal, DP, Swallow, 720p] Страницы:  1 ryushare uploaded keep2share

[LegalPorno.com] Rebecca Volpetti (Rebecca Volpetti goes hardcore: 3on1 anal & DP SZ1298) [2016 г., Gonzo, Gangbang, Anal, DP, Swallow, 720p] Страницы: 1

SpinChix mp4 226131 ryushare uploaded keep2share

SpinChix mp4 226131

Teen porn movies 225211 ryushare uploaded keep2share

Teen porn movies 225211

xxx full hq poharn vido downlod 226036 ryushare uploaded keep2share

xxx full hq poharn vido downlod 226036

Teen 18 Porn XXX Clips Naked 224773 ryushare uploaded keep2share

Teen 18 Porn XXX Clips Naked 224773

teenslovehd video 226220 ryushare uploaded keep2share

teenslovehd video 226220

Hd quality – Teen sex video 1557 ryushare uploaded keep2share

Hd quality – Teen sex video 1557

Report broken links / Post a comment

You must be logged in to post a comment.



General\r\nComplete name : D:New folder218FSBGSMrtFSBGSMrt.wmv\r\nFormat : Windows Media\r\nFile size : 1 015 MiB\r\nDuration : 24mn 34s\r\nOverall bit rate mode : Constant\r\nOverall bit rate : 5 773 Kbps\r\nMaximum Overall bit rate : 6 321 Kbps\r\nPerformer : Royal-Cash.com\r\nEncoded date : UTC 2014-02-10 15:05:44.597\r\nCopyright : Royal-Cash.com\r\n\r\nVideo\r\nID : 2\r\nFormat : VC-1\r\nFormat profile : [email protected]\r\nCodec ID : WMV3\r\nCodec ID/Info : Windows Media Video 9\r\nCodec ID/Hint : WMV3\r\nDescription of the codec : Windows Media Video 9 - Professional\r\nDuration : 24mn 34s\r\nBit rate mode : Constant\r\nBit rate : 6 144 Kbps\r\nWidth : 1 280 pixels\r\nHeight : 720 pixels\r\nDisplay aspect ratio : 16:9\r\nFrame rate : 25.000 fps\r\nColor space : YUV\r\nChroma subsampling : 4:2:0\r\nBit depth : 8 bits\r\nScan type : Progressive\r\nCompression mode : Lossy\r\nBits/(Pixel*Frame) : 0.267\r\nStream size : 1.05 GiB\r\nLanguage : Russian\r\nNumberOfFrames : 36861\r\n\r\nAudio\r\nID : 1\r\nFormat : WMA\r\nFormat version : Version 2\r\nCodec ID : 161\r\nCodec ID/Info : Windows Media Audio\r\nDescription of the codec : Windows Media Audio 9.2 - 128 kbps, 44 kHz, stereo 1-pass CBR\r\nDuration : 24mn 34s\r\nBit rate mode : Constant\r\nBit rate : 128 Kbps\r\nChannel(s) : 2 channels\r\nSampling rate : 44.1 KHz\r\nBit depth : 16 bits\r\nStream size : 22.5 MiB (2%)\r\nLanguage : Russian\r\nNumberOfFrames : 3972\r\n\r\n