Young XXX Tube Videos 3662

Free Porn Videos Xxx Movies Pussy Porn 3666Teen porn movies 3659

Posted in Amateur, HD Porn, Sex Movies, Teen | 25797 Views |


Rate this girl !!!




\r\n



DOWNLOAD

Keep2share.cc - Uploaded.net - Openload.co - Rapidu.net


http://fileom.com/9861j6g17jeo/TNRCSHkt.mp4.html
http://ul.to/mksasdes/TNRCSHkt.mp4
http://ryushare.com/kqb3a2kwm8cf/TNRCSHkt.mp4
http://k2s.cc/file/3ef2a9e0fae0f/TNRCSHkt.mp4


Premium here:
uploaded.net
keep2share.cc
rapidu.net.cc


Teens related to Young XXX Tube Videos 3662


Xxx 888 226518 ryushare uploaded keep2share

Xxx 888 226518

First time Sexual Films 18 sex xxx 5336 ryushare uploaded keep2share

First time Sexual Films 18 sex xxx 5336

ww pink world net ryushare uploaded keep2share

ww pink world net

HD Porn Video 1352 ryushare uploaded keep2share

HD Porn Video 1352

Kiara Lord – Rock my world ryushare uploaded keep2share

Kiara Lord – Rock my world

Wow girls hd porn teens 5537 ryushare uploaded keep2share

Wow girls hd porn teens 5537

ClubSeventeen.com SiteRip – Part 1 ryushare uploaded keep2share

ClubSeventeen.com SiteRip – Part 1

High Definition Movies on HD 225408 ryushare uploaded keep2share

High Definition Movies on HD 225408

Massage girl ryushare uploaded keep2share

Massage girl

Hot amateur ryushare uploaded keep2share

Hot amateur

HD Porn Videos 5509 ryushare uploaded keep2share

HD Porn Videos 5509

blowjob craving lips 226579 ryushare uploaded keep2share

blowjob craving lips 226579

Hd quality – Teen sex video 3683 ryushare uploaded keep2share

Hd quality – Teen sex video 3683

Teen Tits Tube, Young Girls Porn Videos 224090 ryushare uploaded keep2share

Teen Tits Tube, Young Girls Porn Videos 224090

Sweet Teen Porn – Young Porn Videos 225945 ryushare uploaded keep2share

Sweet Teen Porn – Young Porn Videos 225945

Teen Sex Videos Tube Movies 225416 ryushare uploaded keep2share

Teen Sex Videos Tube Movies 225416

Super hot teens fuck swim pool ryushare uploaded keep2share

Super hot teens fuck swim pool

sexs 18 hd indir 226449 ryushare uploaded keep2share

sexs 18 hd indir 226449

Wow Girls Porn Clips download 224521 ryushare uploaded keep2share

Wow Girls Porn Clips download 224521

Teenies Videos – Teen Porn, Teen Sex, XXX Free Videos 2408 ryushare uploaded keep2share

Teenies Videos – Teen Porn, Teen Sex, XXX Free Videos 2408

www xxx com vadio ryushare uploaded keep2share

www xxx com vadio

High Definition Movies on HD Teen Porn XXX Tube 1249 ryushare uploaded keep2share

High Definition Movies on HD Teen Porn XXX Tube 1249

Tube Young Sex 224974 ryushare uploaded keep2share

Tube Young Sex 224974

HD Sex World Videos High Definition Free Porn 224629 ryushare uploaded keep2share

HD Sex World Videos High Definition Free Porn 224629

xxx www888 ryushare uploaded keep2share

xxx www888

Hardcore sex videos in the high definition quality 1934 ryushare uploaded keep2share

Hardcore sex videos in the high definition quality 1934

TeensAnalyzed – Nanette – Taking You Closer To Anal [FullHD 1080p] ryushare uploaded keep2share

TeensAnalyzed – Nanette – Taking You Closer To Anal [FullHD 1080p]

Hd young videos 1872 ryushare uploaded keep2share

Hd young videos 1872

www 18 xxxvids com 226627 ryushare uploaded keep2share

www 18 xxxvids com 226627

Jenny Glam – Who’s My Good Girl? ryushare uploaded keep2share

Jenny Glam – Who’s My Good Girl?

kyra hot and kiara lord klixen three teasing tongues 226098 ryushare uploaded keep2share

kyra hot and kiara lord klixen three teasing tongues 226098

vargin fuck Hd video dwonlod ryushare uploaded keep2share

vargin fuck Hd video dwonlod

Sweet Teen Porn – Teena Dolly ryushare uploaded keep2share

Sweet Teen Porn – Teena Dolly

Sex Teens porn movies 4663 ryushare uploaded keep2share

Sex Teens porn movies 4663

Kennedy Leigh & Thomas – Date Night ryushare uploaded keep2share

Kennedy Leigh & Thomas – Date Night

Report broken links / Post a comment

You must be logged in to post a comment.



General\r\nComplete name : D:hd pornstars teens ryushare.com uploaded.net keep2share.cc fileom.com download porn movies clips TNRCSHkt.mp4\r\nFormat : MPEG-4\r\nFormat profile : Base Media / Version 2\r\nCodec ID : mp42\r\nFile size : 896 MiB\r\nDuration : 18mn 42s\r\nOverall bit rate mode : Variable\r\nOverall bit rate : 6 693 Kbps\r\nEncoded date : UTC 2014-05-19 09:37:27\r\nTagged date : UTC 2014-05-19 09:37:27\r\n©TIM : 00:00:00:00\r\n©TSC : 30000\r\n©TSZ : 1001\r\n\r\nVideo\r\nID : 1\r\nFormat : AVC\r\nFormat/Info : Advanced Video Codec\r\nFormat profile : [email protected]\r\nFormat settings, CABAC : Yes\r\nFormat settings, ReFrames : 3 frames\r\nFormat settings, GOP : M=4, N=29\r\nCodec ID : avc1\r\nCodec ID/Info : Advanced Video Coding\r\nDuration : 18mn 42s\r\nBit rate mode : Variable\r\nBit rate : 6 500 Kbps\r\nWidth : 1 280 pixels\r\nHeight : 720 pixels\r\nDisplay aspect ratio : 16:9\r\nFrame rate mode : Constant\r\nFrame rate : 29.970 fps\r\nStandard : NTSC\r\nColor space : YUV\r\nChroma subsampling : 4:2:0\r\nBit depth : 8 bits\r\nScan type : Progressive\r\nBits/(Pixel*Frame) : 0.235\r\nStream size : 870 MiB (97%)\r\nLanguage : English\r\nEncoded date : UTC 2014-05-19 09:37:27\r\nTagged date : UTC 2014-05-19 09:37:27\r\n\r\nAudio\r\nID : 2\r\nFormat : AAC\r\nFormat/Info : Advanced Audio Codec\r\nFormat profile : LC\r\nCodec ID : 40\r\nDuration : 18mn 42s\r\nSource duration : 18mn 42s\r\nBit rate mode : Variable\r\nBit rate : 192 Kbps\r\nMaximum bit rate : 260 Kbps\r\nChannel(s) : 2 channels\r\nChannel positions : Front: L R\r\nSampling rate : 48.0 KHz\r\nCompression mode : Lossy\r\nStream size : 25.3 MiB (3%)\r\nSource stream size : 25.3 MiB (3%)\r\nLanguage : English\r\nEncoded date : UTC 2014-05-19 09:37:27\r\nTagged date : UTC 2014-05-19 09:37:27\r\n\r\nhd pornstars teens ryushare.com uploaded.net keep2share.cc fileom.com download porn movies clips