Younglegalporn Alexis Crystal – Deeper Means Better

Hot fucker all teens loveJessica Rayne - Jerk Off Instruction - Blowjob

Posted in HD Porn, Pornstar, Sex Movies, Teen | 46276 Views |


Rate this girl !!!




Younglegalporn Alexis Crystal – Deeper Means Better\r\n\r\nYounglegalporn Alexis Crystal – Deeper Means Better\r\n\r\nYounglegalporn Alexis Crystal – Deeper Means Better\r\n\r\nYounglegalporn Alexis Crystal – Deeper Means Better\r\n\r\nYounglegalporn Alexis Crystal – Deeper Means Better\r\n\r\nYounglegalporn Alexis Crystal – Deeper Means Better\r\n

[YoungLegalPorn.com] Alexis Crystal – Deeper Means Better (07.01.2013 г.) [All Sex, Hardcore, Shaved Pussy, Stockings, Teen] [1080p]

\r\nFile: Alexis_Crystal_-_Deeper_Means_Better_-_1080p.mp4\r\nSize: 649565471 bytes (619.47 MiB), duration: 00:21:37, avg.bitrate: 4007 kb/s\r\nAudio: aac, 44100 Hz, 2 channels, s16, 151 kb/s (und)\r\nVideo: h264, yuv420p, 1920×1080, 3850 kb/s, 25.00 fps(r) (und)\r\nstep: 68 s; # tiles: 3×6, tile size: 300×168; total size: 900×1008\r\nAlexis_Crystal_-_Deeper_Means_Better_-_1080p.tbme



DOWNLOAD

Keep2share.cc - Uploaded.net - Openload.co - Rapidu.net


http://fileom.com/y0dse4w91dg0/YLP_-_Alexis_Crystal_-_Deeper_Means_Better_-_1080p.mp4.html
http://ul.to/8f97o7w2/YLP%20-%20Alexis%20Crystal%20-%20Deeper%20Means%20Better%20-%201080p.mp4
http://k2s.cc/file/f6aebad02a3eb/YLP_-_Alexis_Crystal_-_Deeper_Means_Better_-_1080p.mp4


Premium here:
uploaded.net
keep2share.cc
rapidu.net.cc

Teens related to Younglegalporn Alexis Crystal – Deeper Means Better


Teen 18 Porn XXX Clips Naked 3747 ryushare uploaded keep2share

Teen 18 Porn XXX Clips Naked 3747

HD Porn Video 1552 ryushare uploaded keep2share

HD Porn Video 1552

Uploaded net porn XXX 225478 ryushare uploaded keep2share

Uploaded net porn XXX 225478

HD Porn Videos 5509 ryushare uploaded keep2share

HD Porn Videos 5509

Teen Porn XXX Tube 225930 ryushare uploaded keep2share

Teen Porn XXX Tube 225930

College Teen Sex 1992 ryushare uploaded keep2share

College Teen Sex 1992

Casting Vikki 1080p ryushare uploaded keep2share

Casting Vikki 1080p

www21SEXE TURY com ryushare uploaded keep2share

www21SEXE TURY com

HD Porn Teen Sex Videos 224669 ryushare uploaded keep2share

HD Porn Teen Sex Videos 224669

17sex viodeos 226514 ryushare uploaded keep2share

17sex viodeos 226514

High Definition Movies on HD 1766 ryushare uploaded keep2share

High Definition Movies on HD 1766

Free High Quality Sex Movies 4635 ryushare uploaded keep2share

Free High Quality Sex Movies 4635

Young Sex Movies 5695 ryushare uploaded keep2share

Young Sex Movies 5695

HD teen sex tube 3568 ryushare uploaded keep2share

HD teen sex tube 3568

faapy x vedios com 226486 ryushare uploaded keep2share

faapy x vedios com 226486

Tube xxx 223900 ryushare uploaded keep2share

Tube xxx 223900

Fresh Teen Videos 4217 ryushare uploaded keep2share

Fresh Teen Videos 4217

Young Sex Movies 2737 ryushare uploaded keep2share

Young Sex Movies 2737

bf 1080p xxxx sex xxx hd bf 226698 ryushare uploaded keep2share

bf 1080p xxxx sex xxx hd bf 226698

www8ten sex xxx com ryushare uploaded keep2share

www8ten sex xxx com

Porn party teen girls 225342 ryushare uploaded keep2share

Porn party teen girls 225342

teen porn white skin 226106 ryushare uploaded keep2share

teen porn white skin 226106

Kail (AKA: Kail, Kortny, Sandy) ryushare uploaded keep2share

Kail (AKA: Kail, Kortny, Sandy)

Just Clara ryushare uploaded keep2share

Just Clara

Good Teen Tube Sexy Young Naked Girls Movies 223843 ryushare uploaded keep2share

Good Teen Tube Sexy Young Naked Girls Movies 223843

Model porno sex 4859 ryushare uploaded keep2share

Model porno sex 4859

Viola Paige (Toying Around / 10.12.13) Nubiles.net ryushare uploaded keep2share

Viola Paige (Toying Around / 10.12.13) Nubiles.net

Kail Takes on Two Horny Studs for some fun ryushare uploaded keep2share

Kail Takes on Two Horny Studs for some fun

Sex Teens porn movies 3015 ryushare uploaded keep2share

Sex Teens porn movies 3015

Teens in Porno young porn videos and free teen sex 1672 ryushare uploaded keep2share

Teens in Porno young porn videos and free teen sex 1672

Much Need Vacation X-Art ryushare uploaded keep2share

Much Need Vacation X-Art

Valerie White – College Girls Are Easy ryushare uploaded keep2share

Valerie White – College Girls Are Easy

Hardcore sex videos in the high definition quality 4462 ryushare uploaded keep2share

Hardcore sex videos in the high definition quality 4462

Young teens tube hot girls free porn video 2828 ryushare uploaded keep2share

Young teens tube hot girls free porn video 2828

4 mb porn massage fuck x videos 226297 ryushare uploaded keep2share

4 mb porn massage fuck x videos 226297

Report broken links / Post a comment

You must be logged in to post a comment.



General\r\nComplete name : H:HD TEENS PORN DOWNLOAD RYUSHARE UPLOADED KEEP2SHARE Alexis_Crystal_-_Deeper_Means_Better_-_1080p.mp4\r\nFormat : MPEG-4\r\nFormat profile : Base Media\r\nCodec ID : isom\r\nFile size : 619 MiB\r\nDuration : 21mn 37s\r\nOverall bit rate mode : Variable\r\nOverall bit rate : 4 006 Kbps\r\nWriting application : Lavf52.64.2\r\nComment : Download from HDteenmania.com\r\n\r\nVideo\r\nID : 1\r\nFormat : AVC\r\nFormat/Info : Advanced Video Codec\r\nFormat profile : [email protected]\r\nFormat settings, CABAC : Yes\r\nFormat settings, ReFrames : 2 frames\r\nCodec ID : avc1\r\nCodec ID/Info : Advanced Video Coding\r\nDuration : 21mn 37s\r\nBit rate : 3 850 Kbps\r\nWidth : 1 920 pixels\r\nHeight : 1 080 pixels\r\nDisplay aspect ratio : 16:9\r\nFrame rate mode : Constant\r\nFrame rate : 25.000 fps\r\nColor space : YUV\r\nChroma subsampling : 4:2:0\r\nBit depth : 8 bits\r\nScan type : Progressive\r\nBits/(Pixel*Frame) : 0.074\r\nStream size : 595 MiB (96%)\r\nWriting library : x264 core 102 r1666 d058f37\r\nEncoding settings : cabac=1 / ref=2 / deblock=1:0:0 / analyse=0x3:0x113 / me=hex / subme=6 / psy=1 / psy_rd=1.00:0.00 / mixed_ref=0 / me_range=16 / chroma_me=1 / trellis=0 / 8x8dct=1 / cqm=0 / deadzone=21,11 / fast_pskip=1 / chroma_qp_offset=-2 / threads=24 / sliced_threads=0 / nr=0 / decimate=1 / interlaced=0 / constrained_intra=0 / bframes=3 / b_pyramid=0 / b_adapt=1 / b_bias=0 / direct=3 / weightb=1 / open_gop=0 / weightp=2 / keyint=250 / keyint_min=25 / scenecut=40 / intra_refresh=0 / rc_lookahead=40 / rc=crf / mbtree=1 / crf=20.0 / qcomp=0.60 / qpmin=10 / qpmax=51 / qpstep=4 / ip_ratio=1.41 / aq=1:1.00\r\n\r\nAudio\r\nID : 2\r\nFormat : AAC\r\nFormat/Info : Advanced Audio Codec\r\nFormat profile : LC\r\nCodec ID : 40\r\nDuration : 21mn 36s\r\nBit rate mode : Variable\r\nBit rate : 151 Kbps\r\nChannel(s) : 2 channels\r\nChannel positions : Front: L R\r\nSampling rate : 44.1 KHz\r\nCompression mode : Lossy\r\nDelay relative to video : 40ms\r\nStream size : 23.4 MiB (4%)